<?xml version="1.0" standalone="no"?>
<!DOCTYPE svg PUBLIC "-//W3C//DTD SVG 1.1//EN" "http://www.w3.org/Graphics/SVG/1.1/DTD/svg11.dtd" >
<svg>
<metadata>
Created by FontForge 20120731 at Fri Jun  3 09:58:50 2016
 By ,,,
Copyright (c) 2015 by artisans. All rights reserved.
</metadata>
<defs>
<font id="scylla" horiz-adv-x="607" >
  <font-face 
    font-family="scylla"
    font-weight="400"
    font-stretch="normal"
    units-per-em="1000"
    panose-1="0 0 0 0 0 0 0 0 0 0"
    ascent="800"
    descent="-200"
    x-height="555.5"
    cap-height="696"
    bbox="-842.398 -578 1676.4 1189"
    underline-thickness="50"
    underline-position="-50"
    unicode-range="U+000D-E089"
  />
<missing-glyph horiz-adv-x="198" 
 />
    <glyph glyph-name="b_r" unicode="br" horiz-adv-x="1062" 
d="M1089 280q1 7 5.5 10t9.5 1.5t8.5 -6.5t1.5 -14q-9 -38 -20.5 -78t-27.5 -79t-38.5 -73.5t-53.5 -61.5q-27 -23 -59.5 -28.5t-63 11.5t-54 61t-30.5 120q-1 13 -2.5 45.5t-1.5 75.5t1 91.5t5 94.5q-17 -15 -37 -17.5t-46 5.5q-1 -44 -13.5 -76t-35 -54.5t-54 -36.5
t-70.5 -23q-6 -45 -18.5 -88.5t-31 -80.5t-42.5 -65.5t-51.5 -43.5t-59 -14.5t-64.5 21.5q-31 19 -38.5 43.5t2.5 51.5t35.5 55.5t60.5 54.5q6 48 7.5 99.5t-2.5 94.5t-15.5 71t-30.5 29q-23 1 -41 -12.5t-33 -36.5q-1 -69 -1 -137.5v-126t-0.5 -98.5t-3.5 -54
q-7 -13 -23.5 -13t-37 7.5t-42.5 20t-40.5 27t-30.5 27.5t-12 20v752q0 16 18.5 15t45.5 -11t58 -26.5t55.5 -32.5t38 -28t5.5 -13q-7 -14 -12 -40t-8.5 -61.5t-5.5 -77.5t-3 -88q23 26 52 44t67 23q60 8 100.5 -12t65.5 -58.5t34 -90.5t6 -109q19 5 44 14.5t48 27.5
t39 46.5t16 71.5q-17 8 -45 31t-50.5 60t-32 86.5t10.5 109.5q4 9 20 6t37 -13.5t43.5 -26t40.5 -31t27.5 -28t3.5 -18.5q-9 -9 -14.5 -31t-8.5 -47t-4 -46t-1 -28q26 -9 47 -5t36 33q2 13 4 24l4 22q3 15 21 14.5t43 -10t52.5 -25.5t49 -31.5t32.5 -27.5t3 -13
q-11 -13 -20 -47t-14 -77t-6 -89.5t3.5 -85t15 -63t27.5 -23.5q14 1 30 22.5t30 53.5t24.5 69t15.5 69zM242 37q8 -11 15.5 -8.5t14.5 15.5t13.5 34.5t11.5 48.5q-33 -31 -47.5 -56t-7.5 -34z" />
    <glyph glyph-name="b_x" unicode="bx" horiz-adv-x="1130" 
d="M1036 549q4 2 13 -7t17 -21.5t13.5 -24.5t2.5 -15q-12 -3 -29.5 -18t-39.5 -38.5t-47 -54t-51 -65.5q13 -42 31 -85.5t37 -78t38.5 -55.5t36.5 -20q29 2 56 57t44 156q1 6 5.5 7.5t9.5 0t8.5 -6t2.5 -9.5q-8 -44 -19 -91t-27.5 -88t-39.5 -71.5t-55 -41.5
q-39 -14 -73.5 -7.5t-65.5 28t-57.5 56.5t-49.5 78q-23 -36 -43 -70.5t-35 -63.5q-4 -2 -10.5 -4t-12.5 -2t-9.5 1t-1.5 5q13 30 38 73.5t57 94.5q-30 63 -52.5 133t-39.5 136q-4 -30 -18.5 -59t-37 -53.5t-53 -44.5t-66.5 -32q-6 -45 -18.5 -88.5t-31 -80.5t-42.5 -65.5
t-51.5 -43.5t-59 -14.5t-64.5 21.5q-31 19 -38.5 43.5t2.5 51.5t35.5 55.5t60.5 54.5q6 48 7.5 99.5t-2.5 94.5t-15.5 71t-30.5 29q-23 1 -41 -12.5t-33 -36.5q-1 -69 -1 -137.5v-126t-0.5 -98.5t-3.5 -54q-7 -13 -23.5 -13t-37 7.5t-42.5 20t-40.5 27t-30.5 27.5t-12 20
v752q0 16 18.5 15t45.5 -11t58 -26.5t55.5 -32.5t38 -28t5.5 -13q-7 -14 -12 -40t-8.5 -61.5t-5.5 -77.5t-3 -88q23 26 52 44t67 23q60 8 100.5 -12t65.5 -58.5t34 -90.5t6 -109q46 22 74 52t43 65t18 73t-1 77v1q-3 15 14 16.5t44.5 -6.5t59 -22.5t57 -29.5t40 -28.5
t6.5 -19.5q-1 -8 2 -20t7.5 -27t9.5 -31t9 -32q23 34 44 64.5t39 56t31.5 44.5t21.5 30zM242 37q8 -11 15.5 -8.5t14.5 15.5t13.5 34.5t11.5 48.5q-33 -31 -47.5 -56t-7.5 -34z" />
    <glyph glyph-name="b_z" unicode="b&#x7a;" horiz-adv-x="1225" 
d="M1248 274q1 5 6 9t10.5 4.5t9.5 -2.5t3 -12q-5 -32 -14.5 -67.5t-27 -71.5t-45.5 -70t-68 -63q10 -51 5.5 -105t-22.5 -104.5t-49.5 -93.5t-74.5 -70.5t-98 -36.5t-119 9q-55 15 -74 55t1 91.5t80 107.5t163 103q-2 34 -12 61.5t-29.5 41.5t-49 11t-70.5 -28q-4 -4 -19 9
t-29 34t-22.5 44.5t0.5 41.5q11 22 18.5 35.5t15 26t17.5 29t26 44t39.5 70t58.5 108.5q-30 -19 -62 -24.5t-57.5 -5.5t-42.5 2t-17 -2q-6 -44 -26.5 -78.5t-48 -59.5t-57.5 -42t-54 -27q-6 -45 -18.5 -88.5t-31 -80.5t-42.5 -65.5t-51.5 -43.5t-59 -14.5t-64.5 21.5
q-31 19 -38.5 43.5t2.5 51.5t35.5 55.5t60.5 54.5q6 48 7.5 99.5t-2.5 94.5t-15.5 71t-30.5 29q-23 1 -41 -12.5t-33 -36.5q-1 -69 -1 -137.5v-126t-0.5 -98.5t-3.5 -54q-7 -13 -23.5 -13t-37 7.5t-42.5 20t-40.5 27t-30.5 27.5t-12 20v752q0 16 18.5 15t45.5 -11t58 -26.5
t55.5 -32.5t38 -28t5.5 -13q-7 -14 -12 -40t-8.5 -61.5t-5.5 -77.5t-3 -88q23 26 52 44t67 23q60 8 100.5 -12t65.5 -58.5t34 -90.5t6 -109q62 30 93 67t43.5 73t12 68t-0.5 52q3 11 15.5 9.5t31.5 -8t43.5 -15t53 -11.5t60 2t63.5 26q7 6 26.5 4t44.5 -8.5t51 -16t46.5 -19
t31.5 -17.5t5 -11q-33 -17 -71.5 -55t-74.5 -84t-65 -94t-43 -84q16 16 46.5 21t64.5 -7.5t66 -45.5t52 -93q31 23 54.5 51t40.5 58.5t27 62.5t14 63zM777 -341q30 -5 57 16.5t47.5 58t34 82.5t17.5 91q-71 -39 -118 -80.5t-68 -76.5t-14 -60t44 -31zM242 37
q8 -11 15.5 -8.5t14.5 15.5t13.5 34.5t11.5 48.5q-33 -31 -47.5 -56t-7.5 -34z" />
    <glyph glyph-name="o_r" unicode="or" horiz-adv-x="1000" 
d="M1027 280q1 7 5.5 10t9.5 1.5t8.5 -6.5t1.5 -14q-9 -38 -20.5 -78t-27.5 -79t-38.5 -73.5t-53.5 -61.5q-27 -23 -59.5 -28.5t-63 11.5t-54 61t-30.5 120q-1 13 -2.5 45.5t-1.5 75.5t1 91.5t5 94.5q-17 -15 -37 -17.5t-46 5.5q-4 -45 -10.5 -91.5t-23 -84.5t-46.5 -62.5
t-81 -24.5q-9 -61 -35.5 -102.5t-60.5 -67.5t-71 -37t-67 -11q-63 1 -109.5 31.5t-76.5 79.5t-42.5 112t-8 128t26.5 128t61 113q8 10 19.5 11.5t25 -4.5t27 -17t26.5 -24q33 38 88 38q36 2 76.5 -15.5t72 -58t48 -107t3.5 -163.5q27 -2 46.5 11t34 34.5t23.5 49t15.5 54.5
t10 50.5t6.5 37.5q-17 8 -45 31t-50.5 60t-32 86.5t10.5 109.5q4 9 20 6t37 -13.5t43.5 -26t40.5 -31t27 -28t4 -18.5q-9 -9 -14.5 -31t-8.5 -47t-4 -46t-1 -28q26 -9 47 -5t36 33q2 13 4 24l4 22q3 15 21 14.5t43 -10t52.5 -25.5t49 -31.5t32.5 -27.5t3 -13
q-11 -13 -20 -47t-14 -77t-6 -89.5t3.5 -85t14.5 -63t28 -23.5q14 1 30 22.5t30 53.5t24.5 69t15.5 69zM235 -4q27 2 41 51t20 147q-38 12 -66 32t-48 45q-4 -47 -3 -96t7 -89t18 -65.5t31 -24.5zM204 481q14 -20 20 -36t-2 -21q-12 -8 -21 -36.5t-14 -68.5
q15 -28 41.5 -51.5t67.5 -38.5q6 131 -6 195.5t-58 64.5q-15 0 -28 -8z" />
    <glyph glyph-name="o_x" unicode="ox" horiz-adv-x="1068" 
d="M974 549q4 2 13 -7t17 -21.5t13.5 -24.5t2.5 -15q-12 -3 -29.5 -18t-39.5 -38.5t-47 -54t-51 -65.5q13 -42 31 -85.5t37 -78t38.5 -55.5t36.5 -20q29 2 56 57t44 156q1 6 5.5 7.5t9.5 0t8.5 -6t2.5 -9.5q-8 -44 -19 -91t-27.5 -88t-39.5 -71.5t-55 -41.5
q-39 -14 -73.5 -7.5t-65.5 28t-57.5 56.5t-49.5 78q-23 -36 -43 -70.5t-35 -63.5q-4 -2 -10.5 -4t-12.5 -2t-9.5 1t-1.5 5q13 30 38 73.5t57 94.5q-30 63 -52.5 133t-39.5 136q-1 -48 -11 -95.5t-29.5 -85.5t-50 -61t-72.5 -20q-9 -61 -35.5 -102.5t-60.5 -67.5t-71 -37
t-67 -11q-63 1 -109.5 31.5t-76.5 79.5t-42.5 112t-8 128t26.5 128t61 113q8 10 19.5 11.5t25 -4.5t27 -17t26.5 -24q33 38 88 38q36 2 76.5 -15.5t72 -58t48 -107t3.5 -163.5q33 -2 55.5 18.5t36 53.5t20 74t9 80t2.5 71v47v1q-3 15 14 16.5t44.5 -6.5t59 -22.5t57 -29.5
t40 -28.5t6.5 -19.5q-1 -8 2 -20t7.5 -27t9.5 -31t9 -32q23 34 44 64.5t39 56t31.5 44.5t21.5 30zM235 -4q27 2 41 51t20 147q-38 12 -66 32t-48 45q-4 -47 -3 -96t7 -89t18 -65.5t31 -24.5zM204 481q14 -20 20 -36t-2 -21q-12 -8 -21 -36.5t-14 -68.5q15 -28 41.5 -51.5
t67.5 -38.5q6 131 -6 195.5t-58 64.5q-15 0 -28 -8z" />
    <glyph glyph-name="o_z" unicode="o&#x7a;" horiz-adv-x="1163" 
d="M1186 274q1 5 6 9t10.5 4.5t9.5 -2.5t3 -12q-5 -32 -14.5 -67.5t-27 -71.5t-45.5 -70t-68 -63l6 -29q6 -44 -0.5 -93.5t-25 -96.5t-50 -88t-74 -68t-96.5 -35.5t-118 9.5q-55 15 -74 55t1 91.5t80 107.5t163 103q-2 34 -12 61.5t-29.5 41.5t-49 11t-70.5 -28q-4 -4 -19 9
t-29 34t-22.5 44.5t0.5 41.5q11 22 18.5 35.5t15 26t17.5 29t26 44t39.5 70t58.5 108.5q-30 -19 -62 -24.5t-57.5 -5.5t-42.5 2t-17 -2q-4 -57 -16.5 -109t-34 -90.5t-52.5 -60.5t-71 -20q-9 -61 -35.5 -102.5t-60.5 -67.5t-71 -37t-67 -11q-63 1 -109.5 31.5t-76.5 79.5
t-42.5 112t-8 128t26.5 128t61 113q8 10 19.5 11.5t25 -4.5t27 -17t26.5 -24q33 38 88 38q36 2 76.5 -15.5t72 -58t48 -107t3.5 -163.5q33 -2 56 20t38 57t23 77t12 80.5t5.5 66.5t2.5 36q3 11 15.5 9.5t31.5 -8t43.5 -15t53 -11.5t60 2t63.5 26q7 6 26.5 4t44.5 -8.5
t51 -16t46.5 -19t31.5 -17.5t5 -11q-33 -17 -71.5 -55t-74.5 -84t-65 -94t-43 -84q16 16 46.5 21t64.5 -7.5t66 -45.5t52 -93q31 23 54.5 51t40.5 58.5t27 62.5t14 63zM715 -341q30 -5 57 16.5t47.5 58t34 82.5t17.5 91q-71 -39 -118 -80.5t-68 -76.5t-14 -60t44 -31z
M235 -4q27 2 41 51t20 147q-38 12 -66 32t-48 45q-4 -47 -3 -96t7 -89t18 -65.5t31 -24.5zM204 481q14 -20 20 -36t-2 -21q-12 -8 -21 -36.5t-14 -68.5q15 -28 41.5 -51.5t67.5 -38.5q6 131 -6 195.5t-58 64.5q-15 0 -28 -8z" />
    <glyph glyph-name="T_h" unicode="Th" horiz-adv-x="1066" 
d="M1092 279q1 3 6 5.5t10 2.5t8.5 -3.5t1.5 -12.5q-17 -92 -47.5 -165.5t-92.5 -126.5q-27 -23 -59.5 -28.5t-63 11.5t-54 61t-30.5 120q-1 39 0.5 92t0.5 100.5t-8.5 79t-26.5 27.5q-13 -3 -27 -29.5t-27.5 -65t-25 -82.5t-18.5 -82q0 -65 -0.5 -111.5t-3.5 -60.5
q-7 -13 -23.5 -13t-37 7.5t-42.5 20t-40.5 27t-30.5 27.5t-12 20q0 10 -0.5 55.5t-0.5 110.5t0.5 143t2.5 154h-22.5h-15.5t-15.5 0.5t-21.5 0.5q-3 -107 -3.5 -197.5t-6 -163t-19 -127.5t-42.5 -92.5t-76.5 -56t-120.5 -18.5q-20 0 -26 2t-4.5 5t8.5 7l14 8l6 3t15 20
t19 54.5t18.5 107.5t14.5 177.5t5 264.5q-8 1 -23 0.5t-34.5 1.5t-40 8.5t-38 22.5t-30.5 43t-16 70q128 0 244 -2t216 -2q2 50 5 88.5t8 60.5q3 15 21 14.5t43 -10t52.5 -25.5t49 -31.5t32.5 -27.5t3 -13q-11 -21 -17.5 -71.5t-9.5 -117t-3.5 -142t-0.5 -147.5
q9 34 20.5 70.5t25.5 70.5t30.5 62.5t36.5 47.5q24 24 50.5 30.5t51.5 0.5t47 -20t38.5 -31t25 -34t6.5 -27q-5 -24 -10.5 -61.5t-9.5 -80.5t-5.5 -86t2.5 -78t14.5 -56t30.5 -20q14 1 29 20t28.5 49t24.5 68t17 76z" />
    <glyph glyph-name=".notdef" horiz-adv-x="198" 
 />
    <glyph glyph-name="NULL" horiz-adv-x="0" 
 />
    <glyph glyph-name="NULL" horiz-adv-x="0" 
 />
    <glyph glyph-name="nonmarkingreturn" unicode="&#xd;" horiz-adv-x="198" 
 />
    <glyph glyph-name="space" unicode=" " horiz-adv-x="198" 
 />
    <glyph glyph-name="quotesingle" unicode="'" horiz-adv-x="251" 
d="M121 415q-3 -5 -13.5 -6t-22.5 1t-23.5 6.5t-16.5 9.5q-4 4 -3 18t2.5 39t2.5 60.5t-3 83.5q7 17 23.5 24.5t37.5 7t43 -6.5t39.5 -16t27 -21.5t6.5 -22.5z" />
    <glyph glyph-name="parenleft" unicode="(" horiz-adv-x="401" 
d="M340 -26q-90 -1 -149.5 23t-94.5 76t-51 133t-19 193q-3 113 15 193.5t57.5 132t100 74.5t141.5 20q10 0 19 -3.5t13 -8t1.5 -9t-14.5 -5.5q-51 -6 -79 -30t-41.5 -71.5t-16.5 -120t-3 -175.5q0 -102 3 -177t16.5 -123.5t42.5 -71.5t82 -23q13 0 15 -4t-3 -9.5t-15 -9.5
t-20 -4z" />
    <glyph glyph-name="parenright" unicode=")" horiz-adv-x="392" 
d="M64 -26q-10 0 -20 4t-15 9.5t-3.5 9.5t15.5 4q52 0 81.5 23t43 71.5t16.5 123.5t3 177q0 103 -3 175.5t-16.5 120t-41.5 71.5t-79 30q-12 1 -14.5 5.5t1.5 9t13 8t19 3.5q81 3 141.5 -20t100 -74.5t57.5 -132t15 -193.5q-3 -112 -19 -193t-51 -133t-94.5 -76t-149.5 -23z
" />
    <glyph glyph-name="asterisk" unicode="*" 
d="M277 725q1 5 13 3t26 -6.5t26.5 -11t13.5 -10.5v-68t-1 -52q26 20 52.5 40.5t60.5 44.5q9 4 18 -12.5t14 -40t5 -45t-7 -26.5l-77 -56l77 -57q7 -5 7 -27t-5 -45t-14 -40.5t-18 -12.5q-35 26 -63 47t-54 41q0 -26 0.5 -59.5t2.5 -84.5q0 -11 -12 -14.5t-26.5 -0.5
t-27 11.5t-13.5 21.5v110l-93 -70q-7 -5 -15.5 12.5t-15 41t-8.5 44.5t4 24q25 16 44.5 30t36.5 28q-17 13 -36.5 26t-44.5 30q-6 3 -4 24t8.5 44.5t15 41t15.5 12.5l96 -73q0 29 -0.5 61t-0.5 74z" />
    <glyph glyph-name="plus" unicode="+" horiz-adv-x="534" 
d="M187 489q-2 6 9.5 9.5t29 4t38 -1t38.5 -6t30 -10.5t12 -14q-1 -18 -1 -46t1 -61q23 -1 53 -1h72q6 1 9.5 -10t4 -28.5t-1 -38t-6 -38.5t-10.5 -30t-14 -12h-107v-66t-2 -53q0 -8 -12 -12.5t-29 -6.5t-37.5 -1t-38 5t-29.5 10.5t-12 15.5v107q-34 0 -65 0.5t-52 2.5
q-8 0 -12.5 12t-6.5 29t-1 37.5t5 38t10.5 29t15.5 12.5h108v52t1 71z" />
    <glyph glyph-name="comma" unicode="," horiz-adv-x="231" 
d="M135 11q-3 -8 -12.5 -23t-20.5 -30.5t-21.5 -28t-14.5 -14.5q-23 -9 -45 13q-5 4 2.5 17.5t14 30.5t7 34.5t-17.5 31.5q-11 8 -13 26.5t1 40.5t8.5 44.5t9.5 40.5q7 17 23.5 24.5t37.5 7t43 -6.5t39.5 -16t27 -21.5t6.5 -22.5q-29 -40 -43 -75t-32 -73z" />
    <glyph glyph-name="hyphen" unicode="-" horiz-adv-x="525" 
d="M469 363q6 1 9.5 -10t4 -28.5t-1 -38t-6 -38.5t-10.5 -30t-14 -12q-29 1 -79.5 0.5t-106.5 -1t-110 0t-88 2.5q-8 0 -12.5 12t-6.5 29t-1 37.5t5 38t10.5 29t15.5 12.5h87t53.5 -0.5t38.5 -0.5t42 -0.5t64.5 -1t105.5 -0.5z" />
    <glyph glyph-name="period" unicode="." horiz-adv-x="229" 
d="M140 37q-18 -39 -42.5 -39.5t-43.5 25.5t-28.5 71.5t2.5 99.5q7 17 23.5 24.5t37.5 7t43 -6.5t39.5 -16t27 -21.5t6.5 -22.5q-15 -20 -23.5 -34.5t-14.5 -27.5t-12 -27t-15 -33z" />
    <glyph glyph-name="slash" unicode="/" horiz-adv-x="374" 
d="M342 850q1 6 19 7t44 -2.5t56.5 -9.5t55.5 -13.5t40.5 -16t12.5 -15.5q-39 -97 -81.5 -204t-85.5 -217t-85 -218.5t-78 -207.5q-3 -7 -22 -9t-45.5 0t-56.5 7t-54.5 12.5t-40 16t-12.5 17.5q17 42 41.5 104t53.5 136.5t60.5 156t63 162.5t61 156.5t53.5 137.5z" />
    <glyph glyph-name="zero" unicode="0" horiz-adv-x="435" 
d="M187 691q7 4 16.5 0.5t18.5 -10.5t16.5 -16.5t12.5 -16.5q42 24 73 8.5t51.5 -56.5t30.5 -101.5t9 -127t-12 -133t-32 -119.5t-52 -86t-71 -33q-64 0 -108.5 30t-71.5 79t-38 112t-9 128t15.5 127.5t35.5 110.5t51.5 77t63.5 27zM294 560q-22 -3 -38.5 -41.5t-26 -93.5
t-12 -118t4 -115.5t22 -86t42.5 -29.5q17 3 31 29.5t23 67.5t14.5 92.5t5.5 103.5t-4.5 100t-14.5 83t-25 51.5t-36 6.5q-1 -1 2.5 -8.5t7.5 -16.5t6 -16.5t-2 -8.5z" />
    <glyph glyph-name="one" unicode="1" horiz-adv-x="312" 
d="M292 0q-3 -8 -17.5 -8t-35.5 5.5t-45 15t-45 21t-37 24t-20 22.5q4 79 3.5 144t-3 125.5t-3.5 120.5t3 130q-6 -8 -8.5 -12.5t-2.5 -8.5v-6.5t-2 -5.5q-7 -12 -18.5 -17t-21.5 -4.5t-16 6.5t-1 18q9 23 29 55.5t41 74.5q4 2 21 -4t39 -16.5t46.5 -23.5t45.5 -26.5
t34.5 -24.5t13.5 -17q0 -142 -2 -291t2 -297z" />
    <glyph glyph-name="two" unicode="2" horiz-adv-x="417" 
d="M100 490q1 -6 -10.5 -17t-25.5 -17t-25 -0.5t-10 32.5q2 68 34 115.5t77.5 72t96.5 26t93.5 -22.5t67 -73.5t17.5 -127.5q-6 -59 -21.5 -99t-38 -65.5t-49 -40t-53 -22t-51.5 -10.5t-44.5 -7t-31 -11.5t-11.5 -22.5q30 0 66 -12.5t72 -20.5t68 -4t55 37q8 12 15.5 5
t13 -25.5t8.5 -44.5t2 -52t-7 -49t-18 -34q-7 -7 -32 -4.5t-60.5 8t-76 11.5t-78.5 8.5t-68.5 -2.5t-44.5 -21q-5 -5 -6.5 6t-2 30.5t0 43.5t-0.5 44q-2 51 12 79t35.5 45t47 30t47.5 34.5t37 57.5t15 100q0 37 -10.5 56.5t-25.5 26.5t-31.5 3.5t-29.5 -13.5t-19 -24.5
t1 -28.5z" />
    <glyph glyph-name="three" unicode="3" horiz-adv-x="441" 
d="M106 493q-1 -5 -8.5 -11.5t-18 -13t-22 -10t-21 -2t-14 9.5t-0.5 27q0 66 28 110.5t70.5 68.5t91.5 28t91.5 -11t70 -48.5t26.5 -84.5q-1 -59 -22.5 -92.5t-53.5 -51.5t-71 -25t-75 -13q53 1 97.5 -7t77 -28.5t50.5 -54.5t18 -84q0 -67 -31 -112t-77.5 -66t-99.5 -18
t-97.5 32t-72 84.5t-22.5 138.5q1 15 10.5 17t23 -3t27.5 -14.5t24 -16.5q0 -72 18 -116t39.5 -52.5t39.5 21.5t18 105q0 37 -2 64t-11 44t-26 24.5t-47 6.5q-5 1 -13.5 11t-13 22t-2 23t17.5 15q52 -8 74.5 21.5t22.5 95.5q0 61 -19.5 89.5t-42 24t-40 -41.5t-13.5 -106z
" />
    <glyph glyph-name="four" unicode="4" horiz-adv-x="491" 
d="M219 680q13 18 45.5 14t67 -20t61 -37t26.5 -37q0 -75 1 -165t-2 -193q10 -1 19 -1.5t19 -0.5q8 -2 11.5 -12t3.5 -20.5t-3.5 -17.5t-8.5 -4q-13 0 -19 0.5t-21 -0.5q-2 -29 -3 -62.5t-1 -65.5t1 -59t3 -42q-4 -10 -19.5 -11t-36 3t-44 13t-44 19.5t-36 22.5t-20.5 22
v166q-23 0 -43.5 0.5t-41 -3.5t-43.5 -14t-50 -31q-10 -11 -14.5 -7.5t-5.5 15t1 28.5t5.5 32.5t7 27t6.5 13.5q39 52 64.5 103t44 102.5t34.5 106.5t35 115zM219 547q-12 -51 -28.5 -99t-35.5 -90t-39.5 -75t-39.5 -53q24 11 44 14.5t37.5 3.5t32.5 -1.5t29 -1.5q1 22 0 65
t-1.5 89t-0.5 87t2 61z" />
    <glyph glyph-name="five" unicode="5" horiz-adv-x="459" 
d="M370 712q13 -2 27 -16.5t23.5 -31.5t12.5 -32.5t-6 -18.5q-17 -15 -56 -17.5t-84.5 1.5t-90 12t-74.5 15v-202q13 24 42.5 41t65.5 22t73.5 -3.5t68.5 -35t49.5 -72.5t16.5 -115q-3 -90 -37 -147.5t-83 -86.5t-104 -30.5t-100 22t-71.5 70t-17.5 113.5q1 7 15 10.5
t30.5 2t29.5 -9t12 -23.5q-6 -39 1.5 -67.5t21.5 -42t32 -11.5t33.5 23t26.5 62t11 106q0 63 -14.5 102.5t-33.5 50t-38.5 -10.5t-29.5 -80q-15 -22 -34 -24t-35 8t-25.5 26.5t-5.5 31.5q2 76 5 155.5t-5 156.5q-1 27 21 36t56.5 8t76.5 -7.5t81 -10t70 -1t43 20.5z" />
    <glyph glyph-name="six" unicode="6" horiz-adv-x="446" 
d="M367 552q5 40 -2.5 64t-22 31t-33 -2t-36 -35t-31 -69.5t-17.5 -103.5q19 22 52.5 27.5t66.5 -13.5t57.5 -66t24.5 -131q0 -54 -11.5 -101.5t-35.5 -83t-61 -56t-89 -20.5q-51 0 -92.5 21.5t-69.5 66.5t-40 114.5t-3 165.5q10 105 44 175t79 109t94.5 48.5t89.5 -6
t65 -54t22 -95.5q-2 -27 -10.5 -32t-18 2.5t-16.5 21t-6 22.5zM350 252q0 59 -9 92t-22.5 47.5t-30 13.5t-32 -10t-27.5 -22t-17 -23q-1 -9 -2.5 -35.5t-2.5 -61t-0.5 -71t6 -65.5t16 -46t29.5 -11q38 11 65 61t27 131z" />
    <glyph glyph-name="seven" unicode="7" horiz-adv-x="477" 
d="M21 568q-1 26 -0.5 36t0.5 17t0.5 17t-0.5 37q5 8 23.5 8.5t45.5 -2.5t60.5 -7t67.5 -4t66 6t57 24q5 2 17 -3.5t26 -15.5t28.5 -22.5t25.5 -24t16 -21t0 -13.5q-79 -63 -130.5 -130.5t-80.5 -141t-39 -153t-7 -164.5q-13 -14 -42 -10t-58 18t-51.5 33.5t-23.5 34.5
q2 48 5 89.5t11.5 80.5t22.5 78.5t36.5 82.5t55.5 92t79 108q-27 -6 -42.5 -6.5t-28.5 2t-29 5t-43 2.5q-1 -7 -2 -20t-1 -24.5v-18.5t0 -1q1 -16 -8.5 -16.5t-22 5.5t-23 13.5t-11.5 8.5z" />
    <glyph glyph-name="eight" unicode="8" horiz-adv-x="525" 
d="M267 686q63 -1 103.5 -23.5t61 -55.5t22 -72t-13 -73.5t-43.5 -60.5t-70 -33q62 -3 103 -31t59.5 -69t14 -88t-32 -87t-78.5 -66.5t-126 -26.5q-82 0 -135 25.5t-80.5 64.5t-30.5 85t15.5 86.5t56.5 69t93 32.5q-45 3 -75 28.5t-43 62t-8.5 77.5t28.5 75.5t68.5 57.5
t110.5 22zM267 61q22 0 36.5 15.5t22.5 40t8 54.5t-7 59t-22 53t-38 37q-20 -12 -35 -36t-23.5 -52.5t-10 -58.5t5.5 -55t22.5 -41t40.5 -16zM254 400q20 10 33.5 31.5t20 48.5t7 56t-5 52.5t-16 38t-26.5 14.5q-19 -1 -31 -16.5t-17.5 -39.5t-5 -53t5.5 -55.5t14 -47.5
t21 -29z" />
    <glyph glyph-name="nine" unicode="9" horiz-adv-x="446" 
d="M79 141q-5 -40 2.5 -64t22 -31t33 2t36 35t31 69t17.5 104q-19 -22 -52.5 -27.5t-66.5 13.5t-57.5 66t-24.5 131q0 54 11.5 101.5t35.5 83t61 56t89 20.5q51 0 92.5 -21.5t69.5 -66.5t40 -114.5t3 -165.5q-10 -105 -44 -175t-79 -109t-94.5 -48.5t-89.5 6t-65.5 54
t-21.5 95.5q1 27 10 32t18.5 -2.5t16.5 -21t6 -22.5zM96 441q0 -59 9 -92t22.5 -47.5t30 -13.5t32 10t27.5 22t17 23q0 9 2 35.5t3 61t0.5 71t-6 65.5t-16.5 45.5t-29 11.5q-38 -11 -65 -61t-27 -131z" />
    <glyph glyph-name="colon" unicode=":" horiz-adv-x="283" 
d="M161 37q-18 -39 -42.5 -39.5t-43.5 25.5t-28.5 71.5t2.5 99.5q7 17 23.5 24.5t37.5 7t43 -6.5t39.5 -16t27 -21.5t6.5 -22.5q-15 -20 -23.5 -34.5t-14.5 -27.5t-12 -27t-15 -33zM169 383q-18 -39 -42.5 -39.5t-43.5 25.5t-28.5 71.5t2.5 99.5q7 17 23.5 24.5t37.5 7
t43 -6.5t39.5 -16t27 -21.5t6.5 -22.5q-15 -20 -23.5 -34.5t-14.5 -27.5t-12 -27t-15 -33z" />
    <glyph glyph-name="semicolon" unicode=";" horiz-adv-x="275" 
d="M169 383q-18 -39 -42.5 -39.5t-43.5 25.5t-28.5 71.5t2.5 99.5q7 17 23.5 24.5t37.5 7t43 -6.5t39.5 -16t27 -21.5t6.5 -22.5q-15 -20 -23.5 -34.5t-14.5 -27.5t-12 -27t-15 -33zM135 11q-3 -8 -12.5 -23t-20.5 -30.5t-21.5 -28t-14.5 -14.5q-23 -9 -45 13q-5 4 2.5 17.5
t14 30.5t7 34.5t-17.5 31.5q-11 8 -13 26.5t1 40.5t8.5 44.5t9.5 40.5q7 17 23.5 24.5t37.5 7t43 -6.5t39.5 -16t27 -21.5t6.5 -22.5q-29 -40 -43 -75t-32 -73z" />
    <glyph glyph-name="less" unicode="&#x3c;" horiz-adv-x="437" 
d="M317 -57q-43 62 -72.5 104.5t-51.5 73.5t-38.5 55.5t-34 49t-38 53.5t-50.5 71q-6 8 -4 18q0 8 4 13q30 42 50.5 71t38 53.5t34 49t38.5 55.5t51.5 73.5t72.5 104.5q3 6 19 7t37.5 -2.5t46 -9.5t43.5 -13.5t29.5 -16t5.5 -15.5q-44 -62 -70 -98t-42 -58.5t-27 -38
t-25.5 -36t-37 -53t-60.5 -89.5q38 -57 60.5 -89t37 -52.5t25.5 -36t27 -38t42 -58.5t70 -98q5 -7 -5.5 -15.5t-29.5 -16t-43.5 -13.5t-46 -9.5t-37.5 -2.5t-19 7z" />
    <glyph glyph-name="equal" unicode="=" horiz-adv-x="536" 
d="M469 480q6 1 9.5 -10t4 -28.5t-1 -38t-6 -38.5t-10.5 -30t-14 -12q-29 1 -79.5 0.5t-106.5 -1t-110 0t-88 2.5q-8 0 -12.5 12t-6.5 29t-1 37.5t5 38t10.5 29t15.5 12.5h87t53.5 -0.5t38.5 -0.5t42 -0.5t64.5 -1t105.5 -0.5zM469 262q6 2 9.5 -9.5t4 -29t-1 -38t-6 -38.5
t-10.5 -30t-14 -12q-29 1 -79.5 0.5t-106.5 -1t-110 0t-88 2.5q-8 0 -12.5 12t-6.5 29t-1 37.5t5 38t10.5 29t15.5 12.5h87t53.5 -0.5t38.5 -0.5t42 -0.5t64.5 -1t105.5 -0.5z" />
    <glyph glyph-name="greater" unicode="&#x3e;" horiz-adv-x="530" 
d="M217 -57q-3 -6 -19 -7t-37.5 2.5t-46 9.5t-43.5 13.5t-29.5 16t-5.5 15.5q33 46 55.5 77.5t38 53.5t26 36.5t19.5 27t18.5 26t23 33t33 48t48.5 70.5q-29 43 -48.5 71t-33 48t-23 33.5t-18.5 26t-19.5 27t-26 36.5t-38 53t-55.5 78q-5 7 5.5 15.5t29.5 16t43.5 13.5
t46 9.5t37.5 2.5t19 -7q43 -62 72.5 -104.5t51.5 -73.5t38.5 -55.5t34 -49t38 -53.5t50.5 -71q4 -5 4 -13q2 -10 -4 -18q-30 -42 -50.5 -71t-38 -53.5t-34 -49t-38.5 -55.5t-51.5 -73.5t-72.5 -104.5z" />
    <glyph glyph-name="question" unicode="?" horiz-adv-x="479" 
d="M100 540q1 -6 -10.5 -17t-25.5 -17t-25 -0.5t-10 32.5q2 51 20.5 91t47.5 68.5t65.5 44t73.5 18t71.5 -9t60 -38t39 -68.5t8.5 -100q-5 -55 -19.5 -85t-33.5 -44.5t-41 -19t-41 -10.5t-33.5 -18t-19.5 -41q10 -16 4 -30t-20 -24.5t-33.5 -16t-37 -5.5t-29.5 7.5t-12 23.5
q0 29 8.5 47t21.5 31.5t28 26t28 29t21.5 41.5t8.5 64q0 36 -10.5 56t-25.5 27t-31.5 3.5t-29.5 -13.5t-19 -24.5t1 -28.5zM198 37q-18 -39 -42.5 -39.5t-43.5 25.5t-28.5 71.5t2.5 99.5q7 17 23.5 24.5t37.5 7t43 -6.5t39.5 -16t27 -21.5t6.5 -22.5q-15 -20 -23.5 -34.5
t-14.5 -27.5t-12 -27t-15 -33z" />
    <glyph glyph-name="at" unicode="@" horiz-adv-x="787" 
d="M610 156q19 0 35 24t27 63.5t15 90.5t-1.5 103.5t-22.5 103.5t-48 91t-77.5 64.5t-111.5 25.5q-69 1 -125 -26.5t-96.5 -75t-64 -109.5t-28.5 -130q-6 -79 11.5 -156.5t54.5 -140.5t90 -105.5t118 -53t139 18t153 108.5q7 10 16 6t3 -14q-68 -79 -142 -113.5t-145.5 -32
t-135 38.5t-110 99.5t-71.5 150t-18 189.5q5 83 36.5 151.5t80 117.5t109.5 76t125 27q61 0 109 -22t83 -59t57.5 -86t33 -103t8.5 -110.5t-16 -108.5t-39.5 -96t-62.5 -73q-21 -17 -46 -21t-47.5 9t-40 45.5t-23.5 90.5q-8 -40 -31 -70.5t-58 -37.5q-41 -8 -70.5 11
t-48 54.5t-25 81.5t-1 92t23 86.5t47 64.5t72 25.5t98.5 -30.5q1 7 1.5 14t2.5 12q2 12 16 11.5t32.5 -8t39.5 -19.5t37 -24t24.5 -20.5t2.5 -9.5q-8 -10 -14.5 -35.5t-10.5 -58t-4.5 -67.5t2.5 -64t11 -47.5t21 -18.5zM438 270q0 13 0.5 36t1.5 50.5t2.5 57t4.5 55.5
q-28 4 -47 -16t-30 -52.5t-15 -72t-2.5 -75.5t7.5 -62t15 -32q12 -8 22.5 2.5t18.5 29t13.5 40.5t8.5 39z" />
    <glyph glyph-name="A" unicode="A" horiz-adv-x="457" 
d="M-8 261q-4 2 -1.5 11t7.5 18.5t11 17.5t11 8q11 -7 22 -11.5t23 -8.5q16 61 29 122.5t22 114.5t14.5 93.5t5.5 60.5q-2 7 14.5 6.5t42 -7t55.5 -17t56 -23t43 -24.5t17 -22q-4 -123 0 -231t15 -196t27.5 -155t37.5 -107q6 -11 9 -15.5t3 -5.5t-3 0.5t-10 1.5
q-65 -4 -110 13.5t-75.5 61.5t-48 116t-25.5 176q-44 -10 -89 -11q-21 -74 -46.5 -143t-56 -118.5t-65.5 -72t-75 -3.5q-12 6 -15 23t1 33t13.5 25t22.5 -1q25 -20 49 -6.5t46.5 51t43.5 93.5t39 120q-34 3 -60 12zM174 633q-2 -15 -7 -49t-13.5 -80.5t-20.5 -102.5
t-27 -114q38 -5 76 0q-5 72 -6.5 157.5t-1.5 188.5z" />
    <glyph glyph-name="B" unicode="B" horiz-adv-x="663" 
d="M297 557q39 67 76.5 98.5t70.5 37.5t59.5 -10t42 -45t18.5 -67.5t-10 -77.5t-44.5 -74t-84.5 -58q36 6 65 -2.5t50 -27t34.5 -45t18.5 -57.5q15 3 31.5 6.5t33.5 6.5q3 0 3.5 -4.5t0 -10.5t-2 -12t-1.5 -8q-17 -2 -32.5 -4.5t-29.5 -5.5q2 -47 -12.5 -95t-46 -86
t-79.5 -60.5t-112 -17.5q-9 1 -20.5 6t-22 15t-18.5 23.5t-9 30.5q-1 12 5.5 30t23.5 39.5t46 44.5t73 45q1 30 -2.5 57.5t-13.5 48t-27.5 32t-43.5 8.5q-26 -10 -43 -14q-2 -52 -6 -106.5t-15 -104.5t-30 -92t-49 -69t-73.5 -35.5t-102.5 9.5q-21 6 -17.5 10t19.5 6
q35 4 51.5 65t22.5 165t6 244t2 304q0 5 14 2t36 -11.5t47.5 -21t47.5 -25t36.5 -24.5t14.5 -20t0.5 -9.5t1 -3.5t0 -8t-2.5 -22zM305 523q-8 -18 -8.5 -68t-1.5 -116l32 13q18 10 31.5 40.5t21 66.5t7.5 69t-8.5 49t-26.5 6t-47 -60zM337 -20q14 1 27 13.5t24 33.5t19 48.5
t13 56.5q-42 -24 -69 -50.5t-37.5 -48t-4.5 -36.5t28 -17z" />
    <glyph glyph-name="C" unicode="C" horiz-adv-x="491" 
d="M295 489q-15 -39 -19 -64.5t-2 -38.5t7.5 -14t10.5 9q16 31 34.5 69t27.5 75t3.5 68t-38.5 48q-26 13 -47 -7t-36 -62.5t-24 -101.5t-11.5 -122.5t2.5 -125.5t17.5 -111.5t33.5 -80t50 -30.5q12 0 30.5 4t39.5 29t44 79.5t46 154.5q-2 12 3.5 18t12.5 5t12.5 -8.5
t3.5 -22.5q-9 -65 -26.5 -129t-45 -115t-66.5 -83t-90 -32q-81 0 -132 31t-80.5 84.5t-41 125.5t-13.5 155q-2 68 7 130.5t28.5 113.5t48.5 88t68 54.5t87.5 14t106.5 -34.5q39 -21 55.5 -45t17 -50.5t-11.5 -55t-30 -57.5t-38 -58.5t-36 -57.5q-18 -33 -32 -37t-18 19.5
t3.5 72t32.5 119.5q5 14 7.5 14t3 -6.5t-1 -16t-4.5 -14.5z" />
    <glyph glyph-name="D" unicode="D" horiz-adv-x="668" 
d="M265 545q68 82 119.5 118.5t88 38.5t61 -23t39 -66t21.5 -90.5t9 -96t1.5 -83.5t-1.5 -52l43 9q6 1 14 -8.5t7 -14.5q-17 -2 -33.5 -4.5t-31.5 -6.5q-4 -54 -18 -113.5t-44 -109t-80 -82t-126 -32.5q-9 1 -20.5 6.5t-22 15t-18 23t-8.5 30.5q-1 11 5 33t21 49.5
t41.5 57.5t65.5 59q3 51 2.5 103t-6 97.5t-15.5 80.5t-26 51t-37.5 9t-48.5 -44q0 -100 2.5 -184t-0.5 -151.5t-14.5 -118t-39.5 -84t-76.5 -49.5t-124.5 -13q-10 4 -12.5 7.5t0 6.5t7.5 5.5t10 4.5q22 9 33 46t15 95t3.5 132t-2.5 156.5t-3 169.5t3 171q0 9 15 7.5t38 -9.5
t49 -21.5t48 -27.5t36 -27.5t13 -22.5q0 -10 -0.5 -14t-1 -7t-0.5 -8.5v-18.5zM325 -29q13 0 24 15t20 41t15.5 61.5t10.5 75.5q-38 -32 -61 -65.5t-32 -61.5t-3.5 -46t26.5 -20z" />
    <glyph glyph-name="E" unicode="E" horiz-adv-x="504" 
d="M319 470q-16 -39 -19 -59t1.5 -26.5t12.5 -2t13 14.5q17 31 31.5 64.5t20.5 63.5t-0.5 53.5t-32.5 32.5q-18 7 -40 -10t-41.5 -47t-33.5 -68t-16.5 -73t9.5 -62t45 -36q6 -3 11.5 -10t8 -14t-0.5 -11.5t-14 -1.5q-4 1 -9.5 5t-11.5 8t-11 6.5t-7 0.5q-16 -14 -25 -41.5
t-11.5 -60.5t3 -68t20 -63.5t38.5 -46.5t58 -18q61 0 98.5 70.5t54.5 193.5q-2 12 3 17.5t12 4t12.5 -9.5t4.5 -23q-2 -31 -7 -69.5t-16.5 -79t-31 -79t-49 -67.5t-70.5 -45t-97 -13q-78 5 -129 40t-76.5 85t-26.5 106t20.5 102.5t64.5 75t106 23.5q-72 31 -106 78t-37.5 96
t18.5 93t62 69.5t94.5 25.5t115.5 -39q47 -30 67 -57t23 -51.5t-8 -48t-26.5 -47t-31.5 -47.5t-24 -50q-11 -37 -26 -46.5t-23.5 8t-5 62t30.5 115.5q5 14 7.5 14t2.5 -6.5t-1 -16t-4 -14.5z" />
    <glyph glyph-name="F" unicode="F" horiz-adv-x="611" 
d="M67 403q-9 2 -9.5 9t7.5 11q14 11 32.5 16.5t39.5 7.5q1 25 1 49.5v52.5q-11 2 -27.5 1.5t-35 -1t-38 -0.5t-37.5 3q12 51 36 79.5t57 42t73 14.5t84 -3t90 -9t91 -5t86.5 9.5t77.5 35.5q13 10 15 4t-4.5 -21t-18 -36.5t-25 -42.5t-26.5 -39.5t-21 -26.5h-60.5h-46
t-38 0.5t-34.5 0.5q-1 -32 -1.5 -61t-0.5 -58q25 1 46.5 6.5t38.5 19.5q10 5 11 -2.5t-3.5 -19.5t-13 -24.5t-17.5 -18.5q-10 -8 -26.5 -10t-36.5 0q-2 -120 -8.5 -211t-32 -152.5t-78 -92.5t-146.5 -31q-20 0 -26 2t-4.5 5t8.5 7l14 8l5.5 2.5t13 16.5t17 43.5t18 84
t15 138.5t8.5 207q-21 1 -38.5 -1.5t-31.5 -9.5z" />
    <glyph glyph-name="G" unicode="G" horiz-adv-x="549" 
d="M346 283q1 -132 -8 -231t-25.5 -171t-36.5 -119t-40.5 -76.5t-39 -44t-29.5 -19.5q-7 -3 -14 -7t-9 -7.5t4.5 -5.5t26.5 -2q109 0 180 31.5t113.5 102t60 184.5t20.5 280q-1 7 -16.5 19.5t-38.5 25.5t-50 25t-49 19t-36.5 7t-12.5 -11zM389 533q-15 -39 -19 -64.5
t-2 -38.5t7.5 -14t10.5 9q16 31 33 62t24.5 59t0.5 52t-40 41q-26 13 -51 -4.5t-46.5 -55.5t-39 -90.5t-29 -109t-16 -111t-0.5 -96.5t18 -66t39 -19q24 5 37 26.5t19.5 48t9 52t5.5 39.5q-2 13 5 20.5t15.5 8t15.5 -6.5t5 -22q-8 -65 -22 -116t-36.5 -87t-54.5 -54.5
t-75 -16.5q-50 2 -87 21t-62 57t-38 97t-15 142q-2 68 13.5 130.5t44 113t68.5 87.5t88.5 54.5t103.5 13.5t113 -35q39 -21 56 -41.5t18.5 -42t-9 -44t-27.5 -46.5t-36.5 -50t-35.5 -54q-18 -33 -32 -37t-18 19.5t3.5 72t32.5 119.5q5 14 7.5 14t3 -6.5t-1 -16t-4.5 -14.5z
" />
    <glyph glyph-name="H" unicode="H" horiz-adv-x="756" 
d="M43 273q-4 2 -1.5 11t7.5 18.5t11 17.5t11 8q6 -4 13.5 -7t15.5 -6q2 73 1.5 164t-2.5 206q-2 11 12.5 11t36.5 -7t49 -19t50 -25t38.5 -25.5t16.5 -19.5q0 -88 0.5 -163t-1.5 -139q42 2 81.5 6.5t70.5 12.5q-2 76 -2 168v205q0 8 15.5 7t38.5 -7.5t49.5 -17t48.5 -23
t36 -25.5t12 -24q-4 -177 -2.5 -294.5t7 -191t13.5 -111t18.5 -53.5t21.5 -19.5t23 -8.5q7 -3 14 -7t9 -7.5t-4.5 -5.5t-26.5 -2q-81 0 -132 19.5t-80.5 65t-42 121.5t-15.5 189q-29 -8 -69 -15t-85 -12q-3 -96 -15.5 -165.5t-41.5 -114.5t-80 -66.5t-131 -21.5
q-20 0 -26.5 2t-4.5 5.5t9 7.5t14 7q13 6 25 17.5t22 45.5t17.5 99.5t10.5 178.5q-17 2 -31 4t-25 6z" />
    <glyph glyph-name="I" unicode="I" horiz-adv-x="308" 
d="M104 685q-2 11 12.5 11t36.5 -7t49 -19t50 -25t38.5 -25.5t16.5 -19.5v-222.5t-6.5 -177.5t-22 -134.5t-46 -93.5t-79 -54.5t-121.5 -17.5q-20 0 -26.5 2t-4.5 5.5t9 7.5t14 7q11 5 22.5 14.5t21.5 35.5t18.5 74.5t13.5 131.5t6 206.5t-2 300.5z" />
    <glyph glyph-name="J" unicode="J" horiz-adv-x="344" 
d="M140 685q-2 11 12.5 11t36.5 -7t49 -19t50 -25t38.5 -25.5t16.5 -19.5v-289t-5.5 -229t-20.5 -172.5t-45 -119t-78 -68.5t-121 -22q-20 0 -26.5 2t-4.5 5.5t9 7.5t14 7q15 7 28.5 51t23 141.5t15.5 256t8 394.5q0 9 -11 -5t-25.5 -40.5t-29 -60.5t-22 -66.5t-4 -58
t24.5 -34.5q14 -6 18 -23.5t-2 -31.5t-21.5 -17.5t-40.5 19.5q-22 20 -25.5 56.5t5.5 81.5t26 93t37 90t39 73.5t31 43.5z" />
    <glyph glyph-name="K" unicode="K" horiz-adv-x="708" 
d="M603 600q4 -47 -9.5 -83.5t-38 -65t-56 -49t-62.5 -36t-58.5 -25.5t-43.5 -16q82 4 134 -13t82 -43.5t41.5 -56t10.5 -48.5q-3 -88 4.5 -134.5t20 -68.5t28 -27.5t28.5 -11.5q7 -3 14 -7t9 -7.5t-4.5 -5.5t-26.5 -2q-73 0 -121.5 8t-78.5 35t-45 78.5t-21 139.5
q-3 39 -14.5 61t-27 33.5t-34 15.5t-34.5 9q-3 -99 -14.5 -171t-41 -118.5t-80.5 -68.5t-132 -22q-20 0 -26.5 2t-4.5 5.5t9 7.5t14 7q11 5 22 14.5t21 35.5t17 74.5t12 131.5t5.5 206.5t-2.5 300.5q-2 11 12.5 11t36.5 -7t49 -19t50 -25t38.5 -25.5t16.5 -19.5v-242
q18 6 37.5 21.5t35 51.5t24 98t4.5 161q0 8 15.5 7t38.5 -7.5t49.5 -17t48.5 -23t36 -25.5t12 -24z" />
    <glyph glyph-name="L" unicode="L" horiz-adv-x="301" 
d="M6 685q-2 11 12.5 11t36.5 -7t49 -19t50 -25t39 -25.5t16 -19.5q0 -180 -2 -309.5t-24 -214.5q51 -2 90 -11.5t56 -29.5q7 -8 6.5 -25t-6 -38t-14 -43t-18.5 -38.5t-19.5 -24.5t-16.5 -2q-16 38 -51.5 63.5t-79.5 40.5q-20 -32 -55 -53t-72.5 -28.5t-69 0t-43.5 33.5
q-10 22 -6.5 41t17.5 34.5t36.5 28.5t50.5 23q6 37 10.5 92t7 132t3 179.5t-2.5 234.5zM-82 -69q4 -6 11.5 -6t15.5 6.5t16 19.5t13 33q-36 -5 -52.5 -20t-3.5 -33z" />
    <glyph glyph-name="M" unicode="M" horiz-adv-x="711" 
d="M99 685q-2 11 12.5 11t36.5 -7t49 -19t50 -25t38.5 -25.5t16.5 -19.5v-26q13 -65 20.5 -101.5t13.5 -63t12.5 -53t17.5 -71.5q13 64 25 114.5t25 96t26.5 91t28.5 98.5q3 8 17.5 7.5t34.5 -6.5t42.5 -16.5t41.5 -23t32.5 -24.5t15.5 -22l-7 -26q-3 -161 -4 -268.5t0 -176
t3.5 -104.5t7 -53.5t9.5 -23.5t11 -15q4 -7 14 -14t16.5 -12.5t4 -7t-21.5 3.5q-27 7 -45.5 16.5t-30.5 27t-18.5 45.5t-9 71t-3 104t0.5 144l-85 -364q-3 -13 -23.5 -3t-44.5 28.5t-44 39.5t-22 31q-17 71 -31 138.5t-30 145.5q-2 -111 -12 -192t-38.5 -133t-81 -77
t-138.5 -25q-20 0 -26.5 2t-4.5 5.5t9 7.5t14 7q11 5 22.5 14.5t21 35.5t16.5 74.5t12 131.5t5.5 206.5t-2.5 300.5z" />
    <glyph glyph-name="N" unicode="N" horiz-adv-x="627" 
d="M626 600q-3 -155 -5.5 -263t-3 -184t1 -127.5t4.5 -92.5q0 -5 -13 -5.5t-33 2t-44 9t-44.5 15.5t-35 20.5t-15.5 24.5l-3 27q-25 72 -62 161.5t-71 194.5q0 -126 -8.5 -217t-36 -150t-81 -87t-144.5 -28q-20 0 -26.5 2t-4.5 5.5t9 7.5t14 7q11 5 22 14.5t21 35.5t17 74.5
t12 131.5t5.5 206.5t-2.5 300.5q-2 11 12.5 11t36.5 -7t49 -19t50 -25t38.5 -25.5t16.5 -19.5v-25q10 -48 24.5 -96.5t31.5 -96t35 -94t35 -89.5q0 34 -0.5 79.5t-0.5 105.5t-0.5 135.5t-0.5 170.5q0 8 15.5 7t38.5 -7.5t49.5 -17t48.5 -23t36 -25.5t12 -24z" />
    <glyph glyph-name="O" unicode="O" horiz-adv-x="517" 
d="M368 661q44 -31 75 -79t48.5 -106.5t22.5 -123t-3 -127t-28.5 -120t-54 -102t-80 -72.5t-104.5 -31t-100.5 20t-71.5 64.5t-45.5 97t-22.5 116.5t-2.5 123.5t14.5 118t28 100t39 69.5q7 8 18 7t31 -15q9 43 36 65.5t62 28.5t72 -3t66 -31zM245 -46q18 0 32.5 23.5t25 62
t17 89.5t9 106.5t0 112.5t-10.5 107t-21 90.5t-32 63.5q-8 10 -21.5 18t-28 7.5t-27 -12.5t-19.5 -42q11 -6 25 -17t25.5 -24.5t17.5 -27.5t1 -26q-12 -30 -23.5 -81t-19 -110t-9.5 -119.5t2.5 -109.5t18 -80t38.5 -31z" />
    <glyph glyph-name="P" unicode="P" horiz-adv-x="583" 
d="M297 557q53 70 98.5 98.5t81 27t60 -28t36 -67.5t9 -91t-20 -98t-52.5 -88.5t-88 -63.5q-9 -4 -24.5 -11.5t-34 -16t-38 -17.5t-37.5 -16q-7 -65 -22.5 -125t-46 -101t-79 -57.5t-121.5 4.5q-21 6 -17.5 10t19.5 6q35 4 51.5 65t22.5 165t6 244t2 304q0 5 14 2t36 -11.5
t47.5 -21t47.5 -25t36.5 -24.5t14.5 -20t0.5 -9.5t1 -3.5t0 -8t-2.5 -22zM305 523q-6 -12 -7.5 -41.5t-2 -69.5t-1.5 -88t-4 -98l32 17q13 7 26 31.5t24 57.5t18 70.5t9.5 71.5t-1 60t-14.5 36.5t-30 0.5t-49 -48z" />
    <glyph glyph-name="Q" unicode="Q" horiz-adv-x="572" 
d="M368 661q44 -31 75 -80t49 -108t22.5 -123.5t-4 -128t-30 -121t-55.5 -101.5q37 -8 71.5 -8t62.5 11q12 -5 12.5 -23t-7 -36.5t-20.5 -32t-26 -10.5q-35 4 -70 18t-69 34q-29 -23 -62.5 -36.5t-72.5 -15.5q-58 -3 -100.5 20t-71.5 64.5t-45.5 97t-22.5 116.5t-2.5 123.5
t14.5 118t28 100t39 69.5q7 8 18 7t31 -15q9 43 36 65.5t62 28.5t72 -3t66 -31zM212 86q-8 8 -1.5 15t14.5 0q15 -16 35 -30t43 -27q10 39 16.5 90t9 106t-0.5 111t-10.5 105.5t-20.5 89.5t-32 63q-8 10 -21.5 18t-28 7.5t-27 -12.5t-19.5 -42q11 -6 25 -17t25.5 -24.5
t17.5 -27.5t1 -26q-12 -30 -23.5 -81t-19 -110t-9.5 -119.5t2.5 -109.5t18 -80t38.5 -31q14 0 26.5 15.5t22.5 42.5q-23 18 -43.5 37t-38.5 37z" />
    <glyph glyph-name="R" unicode="R" horiz-adv-x="652" 
d="M297 557q53 70 98.5 102.5t81 37t60 -14.5t36 -51.5t9 -74.5t-20 -83.5t-52.5 -78.5t-88 -60l-40 -19q50 -14 82.5 -34t51 -41.5t25.5 -41.5t7 -34q-3 -88 4.5 -134.5t20 -68.5t28 -27.5t28.5 -11.5q7 -3 14 -7t9 -7.5t-4.5 -5.5t-26.5 -2q-73 0 -121.5 8t-78.5 35
t-45 78.5t-21 139.5q-4 51 -21 73.5t-40 31.5q-2 -50 -8 -100.5t-17.5 -96t-31 -83t-49.5 -61t-71.5 -30t-97.5 10.5q-21 6 -17.5 10t19.5 6q35 4 51.5 65t22.5 165t6 244t2 304q-1 5 13.5 2t36.5 -11.5t47.5 -21t47.5 -25t36.5 -24.5t14.5 -20t0.5 -9.5t1 -3.5t0 -8
t-2.5 -22zM322 331q18 10 34.5 42t28 70.5t15.5 74.5t-4 54t-30 10t-61 -59q-8 -18 -8.5 -71t-1.5 -122q5 0 10.5 -0.5t10.5 -1.5z" />
    <glyph glyph-name="S" unicode="S" horiz-adv-x="479" 
d="M394 665q38 -23 55.5 -43.5t20 -41.5t-6.5 -42t-24.5 -43.5t-34 -47.5t-34.5 -53q-18 -33 -32 -37t-18 19.5t3.5 72t32.5 119.5q5 14 7.5 14t3 -6.5t-1 -16t-4.5 -14.5q-15 -39 -19 -64.5t-2 -38.5t7.5 -14t10.5 9q16 31 34 59.5t27 53.5t5 45t-32 33q-14 7 -32 -11
t-35.5 -49t-32.5 -70.5t-23 -76.5t-7.5 -67t14.5 -41q19 -16 43 -23t48 -13.5t46 -15.5t38 -27.5t23.5 -50t1.5 -83.5q-4 -56 -31 -96.5t-68.5 -65t-91 -32.5t-98 1t-90.5 34.5t-67 68.5t-29 103.5t24 139.5q6 18 24 21t40.5 -3.5t46.5 -19.5t43.5 -28.5t31 -30.5t8.5 -24
q-24 -66 -29 -109.5t0.5 -65.5t19.5 -25t28 11t25.5 43.5t12.5 71.5q1 50 -3 89t-20 67.5t-45.5 47t-78.5 28.5q-23 4 -35.5 28t-15 59t4.5 76t23.5 79.5t43 70.5t62.5 48.5t81.5 13t100.5 -35.5z" />
    <glyph glyph-name="T" unicode="T" horiz-adv-x="625" 
d="M603 695q17 0 20 -7.5t-2.5 -20.5t-17 -29t-25.5 -32t-27.5 -30t-21.5 -22h-56h-36t-27.5 0.5t-29.5 0.5q-3 -107 -3.5 -197.5t-6 -163t-19 -127.5t-42.5 -92.5t-76.5 -56t-120.5 -18.5q-20 0 -26 2t-4.5 5t8.5 7l14 8l6 3t15 20t19 54.5t18.5 107.5t14 177.5t5.5 264.5
q-8 1 -23 0.5t-34.5 1.5t-40 8.5t-38 22.5t-30.5 43t-16 70q66 0 145.5 -0.5t160.5 -1t158 -0.5t139 2z" />
    <glyph glyph-name="U" unicode="U" horiz-adv-x="665" 
d="M200 600q-3 -144 -7 -254t-5 -185t3 -115.5t18 -45.5q17 -6 35.5 1.5t38.5 33t41 71.5t42 117q-5 88 -5.5 202.5t-0.5 264.5q0 8 15.5 7t38.5 -7.5t49.5 -17t48.5 -23t36 -25.5t12 -24q-4 -177 -2.5 -294.5t7 -191t13.5 -111t18.5 -53.5t21.5 -19.5t23 -8.5q7 -3 14 -7
t9 -7.5t-4.5 -5.5t-26.5 -2q-64 0 -109 12t-75.5 39t-48 71t-26.5 109q-21 -65 -44 -107t-46.5 -66.5t-46 -34.5t-41 -12t-33 1.5t-21.5 6.5q-58 22 -87 74t-41 143.5t-12.5 227.5t-1.5 326q0 8 15.5 7t38.5 -7.5t49.5 -17t48.5 -23t36 -25.5t12 -24z" />
    <glyph glyph-name="V" unicode="V" horiz-adv-x="502" 
d="M131 11q-20 76 -43.5 164t-43.5 177.5t-32.5 176.5t-10.5 162q0 10 16 8.5t40 -9.5t51.5 -22t51 -28t38 -27.5t13.5 -21.5q-6 -30 -3 -82t11.5 -113.5t21 -126t25.5 -119t25.5 -92.5t21.5 -47q21 96 42.5 194.5t38 189t24.5 168t3 131.5q-1 8 12.5 2.5t29.5 -16.5
t28.5 -25.5t9.5 -24.5q-16 -66 -28.5 -119.5t-23.5 -103.5l-22 -100t-24.5 -107t-30.5 -126t-39 -157q-4 -17 -26 -11t-52.5 23.5t-63.5 41t-60 40.5z" />
    <glyph glyph-name="W" unicode="W" horiz-adv-x="774" 
d="M429 -2q-18 66 -34.5 125.5t-30.5 116.5q-5 -25 -10 -52.5t-13.5 -64.5t-20.5 -88t-30 -122q-4 -17 -22 -13t-43.5 19t-54.5 36t-56 38q-20 76 -41 168t-37.5 186t-26.5 185t-8 166q0 10 16 8.5t40 -9.5t51.5 -22t51 -28t38 -27.5t13.5 -21.5q-6 -30 -6 -83t3.5 -115.5
t10.5 -128.5t15.5 -121.5t17.5 -94.5t18 -48q39 145 51 242t12 158q-4 34 -6 69t0 73q0 10 16 6.5t39 -16t49.5 -30t49.5 -36t37.5 -34t12.5 -23.5q-6 -30 -6.5 -69t2.5 -81t9 -83.5t14 -76.5t17 -60t18 -34q21 96 42.5 194.5t38 189t24.5 168t3 131.5q-1 8 12.5 2.5
t29.5 -16.5t28.5 -25.5t9.5 -24.5q-16 -66 -28.5 -119.5t-23.5 -103.5l-22 -100t-24.5 -107t-30 -126t-39.5 -157q-4 -17 -22 -13t-43.5 19t-54.5 36t-56 38z" />
    <glyph glyph-name="X" unicode="X" horiz-adv-x="530" 
d="M465 685q10 13 16 8.5t10 -18t5.5 -31t2.5 -28.5q-69 -85 -124 -153.5t-99 -126.5q28 -108 53 -179t47 -115.5t41.5 -67t36 -32.5t29.5 -12.5t23 -7.5q7 -3 14 -7t9 -7.5t-4.5 -5.5t-26.5 -2q-42 0 -86.5 -1.5t-89.5 17t-90 68.5t-89 152q-35 -63 -55 -118.5t-31 -117.5
q-3 -16 -11.5 -14.5t-17 11t-15 22.5t-4.5 21q6 31 15 60.5t22 60.5t31 64.5t42 71.5q-31 87 -61 207.5t-58 285.5q0 7 17 6.5t41.5 -7t53 -17t52.5 -23t39.5 -25.5t13.5 -24q21 -111 42 -198q42 59 93 128.5t113 154.5z" />
    <glyph glyph-name="Y" unicode="Y" horiz-adv-x="590" 
d="M200 600q-3 -144 -7 -254t-5 -185t3 -115.5t18 -45.5q19 -7 40.5 4t44.5 45.5t46.5 96t46.5 156.5v389q-2 11 12.5 11t36.5 -7t49 -19t50 -25t38.5 -25.5t16.5 -19.5q0 -19 -0.5 -67.5t-0.5 -111t-0.5 -131.5t-0.5 -130t-0.5 -105.5t-0.5 -58.5q-2 -99 -31.5 -174
t-82 -125.5t-126.5 -76.5t-164 -26q-20 0 -26.5 2t-4.5 5.5t9 7.5t14 7q9 4 27.5 16.5t41 34t46.5 52.5t44.5 73.5t34.5 96t16 119.5q0 16 0.5 58t0.5 99q-21 -76 -45 -125t-48.5 -78t-48.5 -41.5t-44 -15t-35.5 1t-22.5 6.5q-58 22 -87 74t-41 143.5t-12.5 227.5t-1.5 326
q0 8 15.5 7t38.5 -7.5t49.5 -17t48.5 -23t36 -25.5t12 -24z" />
    <glyph glyph-name="bracketleft" unicode="[" horiz-adv-x="287" 
d="M-29 750q0 3 13 4t32 0.5t41.5 -2t42.5 -4t35.5 -5.5t19.5 -5h64q5 0 8 -4t3.5 -9t-2 -9.5t-7.5 -5.5h-63q0 -89 -1 -172.5t-2 -166t-0.5 -167t2.5 -174.5h62q5 0 8 -4t3.5 -9t-2 -9.5t-7.5 -5.5h-63v-2q0 -3 -13.5 -8.5t-34 -10.5t-44.5 -9t-45 -5t-35 1.5t-15 10.5v98
t0.5 121t0.5 136.5v143v141t-1 131.5z" />
    <glyph glyph-name="backslash" unicode="\" horiz-adv-x="464" 
d="M31 730q-4 8 9.5 11t36.5 2t51 -5.5t54 -11.5t45.5 -16t25.5 -19q29 -97 54 -183.5t49.5 -171.5t51.5 -173t59 -187q2 -7 -12.5 -10t-38 -2.5t-51.5 4.5t-53 10t-43.5 13.5t-21.5 16.5q-19 63 -44 148.5t-53.5 182.5t-59 197.5t-59.5 193.5z" />
    <glyph glyph-name="bracketright" unicode="]" horiz-adv-x="307" 
d="M282 750q-1 -62 -1 -131.5v-141v-143t0.5 -136.5t0.5 -121v-98q-1 -8 -15 -10.5t-35 -1.5t-45 5t-44.5 9t-34 10t-13.5 9v2h-63q-5 1 -7.5 5.5t-2 9.5t3.5 9t8 4h62q2 90 2.5 174.5t-0.5 167t-2 166t-1 172.5h-63q-5 1 -7.5 5.5t-2 9.5t3.5 9t8 4h64q4 2 19.5 5t35.5 5.5
t42.5 4t41.5 2t31.5 -0.5t13.5 -4z" />
    <glyph glyph-name="asciicircum" unicode="^" horiz-adv-x="694" 
d="M43 467l71 71t50 50.5t37.5 38l33.5 33.5t36.5 37.5t48.5 49.5q6 6 12 4q5 0 9 -4q29 -29 48.5 -49.5t36.5 -37.5l33.5 -33.5t37.5 -38t50 -50.5l71 -71q4 -2 4.5 -18t-1.5 -37t-6 -45t-9.5 -42.5t-11 -29t-10.5 -5.5q-42 43 -66.5 68.5t-40 41t-26 26.5t-24.5 25.5
t-36 36t-61 59.5q-39 -38 -60.5 -59.5l-36 -36t-24.5 -25.5t-25.5 -26.5t-40 -41t-66.5 -68.5q-5 -5 -10.5 5.5t-11 29t-9.5 42.5t-6 45t-1.5 36.5t4.5 18.5z" />
    <glyph glyph-name="underscore" unicode="_" horiz-adv-x="688" 
d="M622 -61q6 2 9.5 -9.5t4 -29t-1 -38t-6 -38.5t-10.5 -30t-14 -12h-61.5h-96.5t-114.5 -0.5t-116 -0.5t-100.5 0.5t-68 2.5q-8 0 -12.5 12t-6.5 29t-1 37.5t5 38t10.5 29t15.5 12.5h100t85.5 -0.5t80 -0.5t84 -0.5t96.5 -1t118 -0.5z" />
    <glyph glyph-name="grave" unicode="`" horiz-adv-x="340" 
d="M313 689q3 -5 -6 -6t-23.5 1t-31 6.5t-27.5 9.5q-9 4 -20.5 12.5t-33 26t-57 47.5t-92.5 78q-13 17 -4.5 24.5t29.5 7t50 -6.5t57 -16t51 -21.5t32 -22.5z" />
    <glyph glyph-name="a.001" unicode="&#xe000;" horiz-adv-x="595" 
d="M660 290q-12 -55 -3 -83t33 -37t61.5 -2t82.5 22.5t95.5 36.5t102.5 40q94 34 160.5 29t106 -33.5t51 -71.5t-4 -84t-59.5 -71.5t-115 -33.5q-6 0 -6.5 5.5t5.5 5.5q51 0 85.5 22.5t49 54t8 66t-36.5 58.5t-85.5 31.5t-138.5 -14.5q-44 -12 -89 -26t-88.5 -26.5
t-83.5 -21.5t-72.5 -9.5t-56.5 8.5t-35 33q-8 -28 -19 -57t-25.5 -57t-33.5 -52.5t-43 -43.5q-27 -22 -59.5 -27.5t-62.5 11.5t-53.5 60.5t-31.5 119.5q-11 -53 -41 -93.5t-77 -49.5q-54 -11 -93 15t-63 73t-33 108t-2 122t30 114.5t62.5 84.5t96 33t129.5 -40l6 34
q3 15 21 14.5t43 -10t52.5 -25.5t49 -31.5t32.5 -27.5t3 -13q-11 -13 -20 -47t-14 -77t-6 -89.5t3.5 -85t14.5 -63t28 -23.5q14 1 29 20.5t28.5 50.5t25 68.5t17.5 74.5q0 1 0.5 1.5t0.5 1.5q2 7 3 13t3 14t8.5 7t13 -5.5t10 -11t0.5 -10.5zM212 71q16 -10 29 3.5t23.5 38
t17.5 54t12 51.5q0 17 0.5 47.5t2 67t3.5 75.5t5 73q-28 4 -48.5 -10.5t-35.5 -41t-24 -61.5t-13 -73t-3.5 -75.5t4.5 -68.5t11 -52.5t16 -27.5z" />
    <glyph glyph-name="b.001" unicode="&#xe001;" horiz-adv-x="611" 
d="M660 348q-12 -55 -3 -83t33 -37t61.5 -2t82.5 22.5t95.5 36.5t102.5 40q94 34 160.5 29t106 -33.5t51 -71.5t-4 -84t-59.5 -71.5t-115 -33.5q-6 0 -6.5 5.5t5.5 5.5q51 0 85.5 22.5t49 54t8 66t-36.5 58.5t-85.5 31.5t-138.5 -14.5q-47 -13 -96 -28t-95.5 -28t-88 -21
t-74 -5.5t-53.5 18t-26 49.5q-17 -20 -46 -33t-64 -23q-12 -63 -36.5 -120t-59 -94t-77.5 -47t-90 20q-31 19 -38.5 44t2.5 52t35.5 55t60.5 54q6 48 7.5 100t-2.5 94.5t-15.5 70.5t-30.5 29q-23 1 -41 -12.5t-33 -36.5q-1 -69 -1 -137.5v-126t-0.5 -98.5t-3.5 -54
q-7 -13 -23.5 -13t-37 7.5t-42.5 20t-40.5 27t-30.5 27.5t-12 20v752q0 16 18.5 15t45.5 -11t58 -26.5t55.5 -32.5t38 -28t5.5 -13q-7 -14 -12 -40t-8.5 -61.5t-5.5 -77.5t-3 -88q23 26 52 44t67 23q63 9 105 -13.5t66 -65t31.5 -99t1.5 -116.5q31 11 58 25.5t47 38.5
q1 17 8 42q2 8 8.5 7t13 -5.5t10 -11t0.5 -10.5zM242 37q8 -11 15.5 -8.5t14.5 15t13.5 34t11.5 48.5q-32 -30 -47 -55t-8 -34z" />
    <glyph glyph-name="c.001" unicode="&#xe002;" horiz-adv-x="450" 
d="M513 290q-12 -55 -3 -83t33 -37t61.5 -2t82.5 22.5t95.5 36.5t102.5 40q94 34 160.5 29t106 -33.5t51 -71.5t-4 -84t-59 -71.5t-115.5 -33.5q-6 0 -6.5 5.5t5.5 5.5q51 0 85.5 22.5t49 54t8 66t-36.5 58.5t-85.5 31.5t-138.5 -14.5q-64 -17 -131 -38.5t-125.5 -34
t-103 -9.5t-63.5 35q-32 -112 -100 -170.5t-175 -56.5q-68 1 -113.5 31t-70 78t-30 107t4.5 118.5t34.5 113t60 90t81 49.5t98.5 -8q26 -11 47 -26t35 -26q15 -12 13.5 -27t-11.5 -30.5t-24 -30t-24 -25.5q-24 -28 -37 -32.5t-18.5 4t-4 25.5t7 32.5t14 25t17.5 2.5
q4 -8 13.5 -2.5t16 16t7 23t-13.5 18.5q-25 11 -47.5 -12t-39 -65.5t-25.5 -98t-7 -109t16.5 -97.5t45.5 -64q22 -14 53.5 -11t64 29t60 77.5t42.5 134.5q1 10 3 20.5t5 22.5q2 8 8.5 7t13 -5.5t10 -11t0.5 -10.5z" />
    <glyph glyph-name="d.001" unicode="&#xe003;" horiz-adv-x="609" 
d="M672 290q-12 -55 -3 -83t33 -37t61.5 -2t82.5 22.5t96 36.5t102 40q94 34 160.5 29t106 -33.5t51 -71.5t-4 -84t-59 -71.5t-115.5 -33.5q-6 0 -6.5 5.5t5.5 5.5q51 0 85.5 22.5t49 54t8 66t-36.5 58.5t-85.5 31.5t-138.5 -14.5q-65 -17 -132.5 -39t-126.5 -34.5t-103 -9
t-62 37.5q-19 -68 -45.5 -117t-75.5 -90q-27 -23 -59.5 -28.5t-62.5 11.5t-53.5 61t-31.5 120q-11 -53 -41 -93.5t-77 -49.5q-53 -11 -92 14t-63 71.5t-33 107t-2.5 121t28.5 114t60 85.5t93 36t126 -34q1 53 2.5 105t3.5 96t5 77.5t6 49.5q3 15 21 14.5t43 -10t52.5 -25.5
t49 -31.5t32.5 -27.5t3 -13q-6 -7 -10.5 -40.5t-8.5 -82t-7.5 -106t-6 -111t-4 -97.5t-2.5 -66q-1 -35 0.5 -68t7 -58.5t14 -40.5t22.5 -14q13 1 26.5 16.5t26.5 41t24 58t19 65.5q1 14 3 29.5t7 33.5q2 8 8.5 7t13 -5.5t10 -11t0.5 -10.5zM225 71q16 -10 29 3.5t23.5 38
t17.5 54t12 51.5v35t0.5 60.5t1 78.5t1.5 90q-35 1 -58.5 -26.5t-37 -71t-18 -95t-2.5 -97.5t10.5 -80t20.5 -41z" />
    <glyph glyph-name="e.001" unicode="&#xe004;" horiz-adv-x="447" 
d="M509 290q-12 -55 -3 -83t33 -37t61.5 -2t82.5 22.5t95.5 36.5t102.5 40q94 34 160.5 29t106 -33.5t51 -71.5t-4 -84t-59.5 -71.5t-115 -33.5q-6 0 -6.5 5.5t5.5 5.5q51 0 85.5 22.5t49 54t8 66t-36.5 58.5t-85.5 31.5t-138.5 -14.5q-65 -17 -132 -38.5t-125.5 -34.5
t-102.5 -10t-63 36q-15 -45 -39 -86.5t-57 -73t-75.5 -50t-93.5 -17.5q-68 1 -113.5 31t-70 78t-30 107t4.5 118.5t34.5 113t60 90t81 49.5t98.5 -8q26 -11 46.5 -26t35.5 -26q14 -14 14.5 -30.5t-6.5 -34t-18 -34t-18 -29.5q-11 -16 -26 -38t-31.5 -46t-34.5 -49t-35 -47
q4 -52 17 -90.5t37 -48.5q31 -14 62.5 -2.5t59 42t50.5 77.5t37 106q1 21 9 50q2 8 8.5 7t13 -5.5t10 -11t0.5 -10.5zM316 483q-26 3 -46.5 -19.5t-34.5 -59t-22 -83.5t-9 -94q22 34 45.5 72.5t41 74t25.5 64.5t0 45z" />
    <glyph glyph-name="f.001" unicode="&#xe005;" horiz-adv-x="338" 
d="M378 382q-12 -55 -3 -83t33 -37t61.5 -2t82.5 22.5t95.5 36.5t102.5 40q94 34 160.5 29t106 -33.5t51 -71.5t-4 -84t-59 -71.5t-115.5 -33.5q-6 0 -6.5 5.5t5.5 5.5q51 0 85.5 22.5t49 54t8 66t-36.5 58.5t-85.5 31.5t-138.5 -14.5q-49 -13 -99.5 -29t-98.5 -29
t-90 -20.5t-74.5 -3.5t-51.5 23t-21 58q-17 -20 -47.5 -29t-81.5 -9q41 -31 66 -77t37.5 -99.5t13.5 -112t-7 -115t-23.5 -107.5t-35.5 -89.5t-43.5 -61t-47.5 -22.5q-42 0 -70.5 20t-46.5 79.5t-28 168t-14 285.5q-1 27 0 80.5t3.5 119.5t5.5 139.5t6.5 141.5t6.5 123.5
t6 86.5q1 16 19 15.5t43 -10.5t52.5 -26t49.5 -31.5t33.5 -27.5t3.5 -13q-5 -5 -9 -30t-7.5 -62t-7 -82t-6.5 -91.5t-5 -90.5t-4 -77q41 2 80 11t61 35q2 9 3.5 18t4.5 20q2 8 8.5 7t13 -5.5t10 -11t0.5 -10.5zM221 -230q11 -5 23 16t20.5 58.5t12 87.5t-3 103.5t-25.5 106
t-54 94.5q-1 -32 -1.5 -77.5t-0.5 -96t1.5 -101t5 -92t9 -68.5t13.5 -31z" />
    <glyph glyph-name="g.001" unicode="&#xe006;" horiz-adv-x="575" 
d="M636 290q-12 -55 -3 -83t33 -37t61.5 -2t82.5 22.5t95.5 36.5t102.5 40q94 34 160.5 29t106 -33.5t51 -71.5t-4 -84t-59 -71.5t-115.5 -33.5q-6 0 -6.5 5.5t5.5 5.5q51 0 85.5 22.5t49 54t8 66t-36.5 58.5t-85.5 31.5t-138.5 -14.5q-44 -12 -89.5 -26t-89.5 -26.5
t-84 -21.5t-72.5 -9.5t-56 9t-34.5 34.5q-20 -47 -49.5 -81t-66.5 -61q-1 -77 -8 -156.5t-26 -144.5t-52 -106.5t-87 -41.5q-36 -6 -71.5 7t-62.5 39.5t-40 64.5t-3.5 82.5t46.5 93t110 96.5q2 33 2.5 72.5t2.5 87.5q-11 -53 -41 -93.5t-77 -49.5q-54 -11 -93 14.5t-63 72.5
t-33 108.5t-2 122.5t30 114t62.5 84.5t96 33.5t129.5 -40q1 9 2.5 17.5t3.5 16.5q3 15 21 14.5t43 -10t52.5 -25.5t49 -31.5t32.5 -27.5t3 -13q-16 -18 -21 -65t-6 -116q-1 -32 0 -78t1 -100q38 28 66 68t42 102q1 21 9 48q2 8 8.5 7t13 -5.5t10 -11t0.5 -10.5zM214 94
q16 -10 28 3t21 37t15.5 53t11.5 51q0 17 1 45.5t2 61.5t3.5 69t5.5 68q-37 6 -61 -18.5t-38 -65t-18.5 -90t-2 -95t10.5 -78.5t21 -41zM283 -258q1 3 2 24q1 18 2.5 56t3.5 110q-57 -43 -81 -83.5t-26 -73.5t11.5 -55.5t32 -29.5t35 5t20.5 47z" />
    <glyph glyph-name="h.001" unicode="&#xe007;" horiz-adv-x="618" 
d="M523 448q-5 -24 -10.5 -61.5t-9.5 -80.5t-5.5 -86t2.5 -78t14.5 -56t30.5 -20q13 1 26.5 17t26 41.5t23.5 59t18 68.5q2 27 10 58q2 8 8.5 7t13 -5.5t10 -11t0.5 -10.5q-12 -55 -3 -83t33 -37t61.5 -2t82.5 22.5t95.5 36.5t102.5 40q94 34 160.5 29t106 -33.5t51 -71.5
t-4 -84t-59 -71.5t-115.5 -33.5q-6 0 -6.5 5.5t5.5 5.5q51 0 85.5 22.5t49 54t8 66t-36.5 58.5t-85.5 31.5t-138.5 -14.5q-64 -17 -131 -38.5t-125.5 -34t-103 -9.5t-63.5 35q-17 -63 -45 -114t-75 -91q-27 -23 -59.5 -28.5t-63 11.5t-54 61t-30.5 120q-1 39 0.5 92
t0.5 100.5t-8.5 79t-26.5 27.5q-13 -3 -27 -29.5t-27.5 -65t-25 -82.5t-18.5 -82q0 -65 -0.5 -111.5t-3.5 -60.5q-7 -13 -23.5 -13t-37 7.5t-42.5 20t-40.5 27t-30.5 27.5t-12 20v40v79v106t0.5 121t2 124.5t4 117t5.5 96.5t8 65q3 15 21 14.5t43 -10t52.5 -25.5t49 -31.5
t32.5 -27.5t3 -13q-11 -21 -17.5 -71.5t-9.5 -117t-3.5 -142t-0.5 -147.5q9 34 20.5 70.5t25.5 70.5t30.5 62.5t36.5 47.5q24 24 50.5 30.5t51.5 0.5t47 -20t38.5 -31t25 -34t6.5 -27z" />
    <glyph glyph-name="i.001" unicode="&#xe008;" horiz-adv-x="301" 
d="M360 290q-12 -55 -3 -83t33 -37t61.5 -2t82.5 22.5t95.5 36.5t102.5 40q94 34 160.5 29t106 -33.5t51 -71.5t-4 -84t-59.5 -71.5t-115 -33.5q-6 0 -6.5 5.5t5.5 5.5q51 0 85.5 22.5t49 54t8 66t-36.5 58.5t-85.5 31.5t-138.5 -14.5q-42 -11 -86 -25t-86.5 -26t-81.5 -21
t-71.5 -11t-57.5 5.5t-38 27.5q-19 -65 -48.5 -116.5t-71.5 -85.5q-27 -22 -60 -28t-63 11.5t-53.5 61t-30.5 119.5q-1 11 -2 37t-1.5 60.5t0 74.5t2.5 81t6 79.5t10 68.5q3 15 21 14.5t43 -10t52.5 -25.5t49 -31.5t32.5 -27.5t3 -13q-11 -13 -20 -47t-14 -77t-6 -89.5
t3.5 -85t14.5 -63t28 -23.5q12 0 25 15t25 39t22.5 54t18.5 60q0 16 2.5 34.5t8.5 41.5q2 8 8.5 7t13 -5.5t10 -11t0.5 -10.5zM165 627q-18 -39 -42.5 -39.5t-43.5 25.5t-28.5 71.5t2.5 99.5q7 17 23.5 24.5t37.5 7t43 -6.5t39.5 -16t27 -21.5t6.5 -22.5
q-15 -20 -23.5 -34.5t-14.5 -27.5t-12 -27t-15 -33z" />
    <glyph glyph-name="j.001" unicode="&#xe009;" horiz-adv-x="287" 
d="M351 290q-12 -55 -3 -83t33 -37t61.5 -2t82.5 22.5t95.5 36.5t102.5 40q94 34 160.5 29t106 -33.5t51 -71.5t-4 -84t-59 -71.5t-115.5 -33.5q-6 0 -6.5 5.5t5.5 5.5q51 0 85.5 22.5t49 54t8 66t-36.5 58.5t-85.5 31.5t-138.5 -14.5q-66 -17 -134.5 -39t-127.5 -34.5
t-103 -8t-61 40.5q-21 -59 -55.5 -92.5t-75.5 -56.5q-2 -51 -5.5 -103t-11.5 -101t-20.5 -92t-31.5 -75.5t-45.5 -51t-62.5 -18.5q-36 -6 -71.5 7t-62 39.5t-39.5 64.5t-3.5 82.5t46.5 93t110 96.5q1 33 2 72.5t2 87.5v44.5t0.5 67.5t1 80t2 81.5t4.5 73t7 54.5
q3 15 21 14.5t43 -10t52.5 -25.5t49 -31.5t32.5 -27.5t3 -13q-8 -9 -12 -27.5t-5.5 -43.5t-2 -55.5t-1.5 -63.5q-2 -33 -1 -78.5t0 -99.5q22 12 41.5 27.5t35.5 38t28.5 54.5t19.5 77q0 3 1 4q1 6 2.5 12.5t3.5 13.5q2 8 8.5 7t13 -5.5t10 -11t0.5 -10.5zM135 627
q-18 -39 -42.5 -39.5t-43.5 25.5t-28.5 71.5t2.5 99.5q7 17 23.5 24.5t37.5 7t43 -6.5t39.5 -16t27.5 -21.5t6 -22.5q-15 -20 -23.5 -34.5t-14.5 -27.5t-12 -27t-15 -33zM-21 -258q1 3 2 24q1 18 2.5 56t3.5 110q-57 -43 -80.5 -83.5t-26 -73.5t11.5 -55.5t32 -29.5t35 5
t20 47z" />
    <glyph glyph-name="k.001" unicode="&#xe010;" horiz-adv-x="609" 
d="M669 290q-12 -55 -3 -83t33 -37t61.5 -2t82.5 22.5t95.5 36.5t102.5 40q94 34 160.5 29t106 -33.5t51 -71.5t-4 -84t-59.5 -71.5t-115 -33.5q-6 0 -6.5 5.5t5.5 5.5q51 0 85.5 22.5t49 54t8 66t-36.5 58.5t-85.5 31.5t-138.5 -14.5q-65 -17 -132 -38.5t-125.5 -34.5
t-102.5 -10t-63 36q-17 -58 -46 -112.5t-74 -92.5q-27 -23 -59.5 -28.5t-63 11.5t-54 61t-30.5 120q-1 39 -4 71.5t-9 53.5t-15 26.5t-22 -9.5t-21 -27t-14 -22.5t-12 -19t-14 -16.5q1 -78 -4 -125t-9 -64q-7 -13 -23.5 -13t-37 7.5t-42.5 20t-40.5 27t-30.5 27.5t-12 20v40
v79v106t0.5 121t2 124.5t4 117t5.5 96.5t8 65q3 15 21 14.5t43 -10t52.5 -25.5t49 -31.5t32.5 -27.5t3 -13q-7 -14 -11.5 -43.5t-7 -70t-3.5 -89t-1.5 -99.5t0 -102.5t0.5 -97.5q11 18 28 48t38.5 64t45 68.5t47.5 61.5t46.5 43.5t41.5 15.5q3 4 14.5 -9.5t23 -32t19 -34.5
t1.5 -16q-24 0 -48 -3t-49.5 -15.5t-52.5 -37t-58 -66.5q40 12 78.5 11t67.5 -10t45.5 -22t14.5 -25q-7 -35 -14 -76t-7 -75.5t11 -57t41 -20.5q13 1 26.5 16.5t26 40.5t23 57t18.5 65q1 14 3 30t7 35q2 8 8.5 7t13 -5.5t10 -11t0.5 -10.5z" />
    <glyph glyph-name="l.001" unicode="&#xe011;" horiz-adv-x="307" 
d="M366 290q-12 -55 -3 -83t33 -37t61.5 -2t82.5 22.5t96 36.5t102 40q94 34 160.5 29t106 -33.5t51 -71.5t-4 -84t-59.5 -71.5t-115 -33.5q-6 0 -6.5 5.5t5.5 5.5q51 0 85.5 22.5t49 54t8 66t-36.5 58.5t-85.5 31.5t-138.5 -14.5q-63 -17 -129.5 -38.5t-124.5 -34
t-102.5 -10t-64.5 32.5q-17 -58 -46.5 -111t-74.5 -91q-27 -23 -59.5 -28.5t-62.5 11.5t-53.5 61t-31.5 120q-2 38 -4 67.5t-2 70.5q0 13 0.5 51t1 90t2 112.5t3.5 119t5 110t7 85.5q2 16 20 15.5t42.5 -10.5t52.5 -26t49.5 -31.5t33 -27.5t3.5 -13q-5 -5 -9 -36t-8 -76
t-7.5 -98t-6 -102.5t-3.5 -89.5t-1 -58q0 -41 1 -82.5t5 -74.5t12.5 -53.5t24.5 -19.5q12 0 25 15t25.5 39t23 54.5t18.5 62.5q0 15 2.5 33t8.5 40q2 8 8.5 7t13 -5.5t10 -11t0.5 -10.5z" />
    <glyph glyph-name="m.001" unicode="&#xe012;" horiz-adv-x="920" 
d="M823 448q-5 -24 -10.5 -61.5t-9.5 -80.5t-5.5 -86t2.5 -78t14.5 -56t30.5 -20q13 1 26.5 17.5t26.5 42.5t24 59.5t18 67.5q2 13 3.5 26.5t6.5 30.5q2 8 8.5 7t13 -5.5t10 -11t0.5 -10.5q-12 -55 -3 -83t33 -37t61.5 -2t82.5 22.5t95.5 36.5t102.5 40q94 34 160.5 29
t106 -33.5t51 -71.5t-4 -84t-59.5 -71.5t-115 -33.5q-6 0 -6.5 5.5t5.5 5.5q51 0 85.5 22.5t49 54t8 66t-36.5 58.5t-85.5 31.5t-138.5 -14.5q-64 -17 -131 -38.5t-125.5 -34t-103 -9.5t-63.5 35q-17 -57 -46.5 -110.5t-74.5 -94.5q-26 -23 -59 -29t-63.5 11.5t-54 61.5
t-30.5 120q-1 39 0.5 84t0 84t-9 65.5t-26.5 28.5q-11 1 -23 -16t-23.5 -44.5t-22 -62.5t-18.5 -69v-121.5t2 -100.5q0 -16 -16.5 -16t-41.5 8.5t-53 23.5t-50.5 29.5t-34.5 25.5t-4 12q-1 26 1 61t4 72t3.5 73.5t-0.5 65t-8.5 46.5t-19.5 19q-9 0 -21 -21t-24.5 -53.5
t-24.5 -72t-21 -76.5q1 -59 1 -107.5t-4 -69.5q-7 -13 -23.5 -13t-37 7.5t-42.5 20t-40.5 27t-30.5 27.5t-12 20q0 11 -0.5 40t-0.5 68t0.5 85t2.5 91.5t6 87t10 71.5q3 15 21 14.5t43 -10t52.5 -25.5t49 -31.5t32.5 -27.5t3 -13q-13 -24 -19 -61.5t-9 -81.5q10 31 21 63
t24 61.5t27.5 54.5t31.5 43q21 23 44.5 28.5t46 0t43.5 -19t36.5 -29.5t25 -31t9.5 -23q0 -14 -0.5 -51t-0.5 -87q9 31 19.5 61.5t23.5 58.5t27.5 51.5t31.5 40.5q24 24 50.5 30.5t51.5 0.5t47 -20t38.5 -31t25 -34t6.5 -27z" />
    <glyph glyph-name="n.001" unicode="&#xe013;" horiz-adv-x="618" 
d="M522 448q-5 -24 -10.5 -61.5t-9.5 -80.5t-5.5 -86t2.5 -78t14.5 -56t30.5 -20q14 1 29.5 20.5t29 50t24.5 68t17 74.5q0 2 1 2q2 14 6 29q2 8 8.5 7t13 -5.5t10 -11t0.5 -10.5q-12 -55 -3 -83t33 -37t61.5 -2t82.5 22.5t96 36.5t102 40q94 34 160.5 29t106 -33.5
t51 -71.5t-4 -84t-59.5 -71.5t-115 -33.5q-6 0 -6.5 5.5t5.5 5.5q51 0 85.5 22.5t49 54t8 66t-36.5 58.5t-85.5 31.5t-138.5 -14.5q-44 -12 -89 -26t-88 -26.5t-83 -21t-72.5 -9.5t-56.5 8t-36 32q-17 -60 -46 -115t-75 -94q-27 -23 -59.5 -28.5t-63 11.5t-54 61t-30.5 120
q-1 39 0.5 88t0.5 91t-8.5 69t-26.5 23q-12 -3 -26 -29t-27.5 -63.5t-25.5 -81.5t-20 -83q1 -49 1 -88t-4 -58q-7 -13 -23.5 -13t-37 7.5t-42.5 20t-40.5 27t-30.5 27.5t-12 20q0 11 -0.5 40t-0.5 68t0.5 85t2.5 91.5t6 87t10 71.5q3 15 21 14.5t43 -10t52.5 -25.5t49 -31.5
t32.5 -27.5t3 -13q-14 -28 -20.5 -73.5t-8.5 -97.5q9 34 20.5 70.5t25.5 70t30.5 62t36.5 47.5q24 24 50.5 30.5t51.5 0.5t47 -20t38.5 -31t25 -34t6.5 -27z" />
    <glyph glyph-name="o.001" unicode="&#xe014;" horiz-adv-x="549" 
d="M621 290q-12 -55 -3 -83t33 -37t61.5 -2t82.5 22.5t95.5 36.5t102.5 40q94 34 160.5 29t106 -33.5t51 -71.5t-4 -84t-59 -71.5t-115.5 -33.5q-6 0 -6.5 5.5t5.5 5.5q51 0 85.5 22.5t49 54t8 66t-36.5 58.5t-85.5 31.5t-138.5 -14.5q-48 -13 -98.5 -28.5t-97.5 -29
t-89.5 -21t-74.5 -4t-52 21t-23 55.5q-17 -18 -46 -33.5t-69 -16.5q-9 -61 -35.5 -102.5t-60.5 -67.5t-71 -37t-67 -11q-63 1 -109.5 31.5t-76.5 79.5t-42.5 112t-8 128t26.5 128t61 113q8 10 19.5 11.5t25 -4.5t27 -17t26.5 -24q33 38 88 38q36 2 76.5 -15.5t72 -58
t48 -107t3.5 -163.5q29 -1 59 11.5t56 48.5q1 16 8 41q2 8 8.5 7t13 -5.5t10 -11t0.5 -10.5zM235 -4q27 2 41 51t20 147q-38 12 -66 32t-48 45q-4 -47 -3 -96t7 -89t18 -65.5t31 -24.5zM296 229q6 131 -6 195.5t-58 64.5q-15 0 -28 -8q14 -20 20 -36t-2 -21
q-12 -8 -21 -36.5t-14 -68.5q15 -28 41.5 -51.5t67.5 -38.5z" />
    <glyph glyph-name="p.001" unicode="&#xe015;" horiz-adv-x="623" 
d="M658 344q-12 -55 -3 -83t33 -37t61.5 -2t82.5 22.5t95.5 36.5t102.5 40q94 34 160.5 29t106 -33.5t51 -71.5t-4 -84t-59 -71.5t-115.5 -33.5q-6 0 -6.5 5.5t5.5 5.5q51 0 85.5 22.5t49 54t8 66t-36.5 58.5t-85.5 31.5t-138.5 -14.5q-47 -12 -95.5 -27.5t-94.5 -28.5
t-87.5 -21t-74 -6t-54 17t-27.5 48q-17 -22 -41.5 -39.5t-53.5 -32.5q-9 -61 -31 -114.5t-55 -87.5t-76.5 -41t-95.5 25q-41 25 -52.5 47t-1.5 42.5t37.5 40t64.5 37.5q6 39 8 81t0 76.5t-9.5 56.5t-22.5 22q-15 -1 -29 -17t-26 -43t-22 -62.5t-17 -75.5q-1 -59 -1.5 -122
t0 -124t1 -117.5t0.5 -101.5t-1 -76t-3 -41q-7 -13 -23.5 -13t-37 7.5t-42.5 20t-40.5 27t-30.5 27.5t-12 20v44.5t-0.5 91t-1 123t-0.5 141t-0.5 145t-1 134.5t-0.5 109.5v71.5q0 16 18.5 15t45.5 -11t58 -26.5t55.5 -32.5t38 -28t5.5 -13q-8 -15 -12.5 -46.5t-8.5 -76.5
q13 43 29.5 83t35.5 70t40.5 48.5t46.5 20.5q50 3 85.5 -23t57 -70t29.5 -101t4 -115q29 16 52 32t36 34q2 12 3.5 25.5t6.5 29.5q2 8 8.5 7t13 -5.5t10 -11t0.5 -10.5zM260 37q6 -13 12 -13t12 10t11 28t10 41q-28 -15 -41 -30.5t-4 -35.5z" />
    <glyph glyph-name="q.001" unicode="&#xe016;" 
d="M668 290q-12 -55 -3 -83t33 -37t61.5 -2t82.5 22.5t95.5 36.5t102.5 40q94 34 160.5 29t106 -33.5t51 -71.5t-4 -84t-59.5 -71.5t-115 -33.5q-6 0 -6.5 5.5t5.5 5.5q51 0 85.5 22.5t49 54t8 66t-36.5 58.5t-85.5 31.5t-138.5 -14.5q-64 -17 -131 -38.5t-125.5 -34.5
t-103 -10t-63.5 35q-22 -71 -60.5 -119t-85.5 -63v-5q55 -35 83 -77.5t35 -86.5t-3.5 -86t-32 -74.5t-51.5 -52t-62 -19.5q-28 0 -51.5 7.5t-42.5 28.5t-32.5 59t-21 98t-8 146t7.5 204q-11 -53 -41 -93.5t-77 -49.5q-54 -11 -93 15t-63 73t-33 108t-2 122t30 114.5
t62.5 84.5t96 33t129.5 -40l6 34q3 15 21 14.5t43 -10t52.5 -25.5t49 -31.5t32.5 -27.5t3 -13q-8 -9 -14.5 -28t-11.5 -44.5t-8.5 -56t-4.5 -61.5q-1 -16 -1 -40.5v-54t0.5 -63.5t1.5 -68q33 16 57 43.5t39.5 57.5t25 60t14.5 53q2 29 10 61q2 8 8.5 7t13 -5.5t10 -11
t0.5 -10.5zM223 91q16 -10 31.5 4t27.5 37t19 48t6 38q0 18 0.5 48.5t2 67t3.5 75.5t5 73q-37 6 -62 -18.5t-39.5 -65.5t-20 -91t-4 -95.5t9.5 -79t21 -41.5zM515 -230q20 -27 35.5 -15.5t17.5 44.5t-15 79t-61 87q2 -36 4 -69t5 -59t6.5 -43.5t7.5 -23.5z" />
    <glyph glyph-name="r.001" unicode="&#xe017;" horiz-adv-x="451" 
d="M516 290q-12 -55 -3 -83t33 -37t61.5 -2t82.5 22.5t95.5 36.5t102.5 40q94 34 160.5 29t106 -33.5t51 -71.5t-4 -84t-59 -71.5t-115.5 -33.5q-6 0 -6.5 5.5t5.5 5.5q51 0 85.5 22.5t49 54t8 66t-36.5 58.5t-85.5 31.5t-138.5 -14.5q-44 -12 -89.5 -26t-89.5 -26.5
t-83.5 -21.5t-72.5 -9.5t-56.5 9t-34.5 34.5q-18 -60 -45.5 -116t-73.5 -96q-27 -23 -59.5 -28.5t-63 11.5t-54 61t-30.5 120q-1 13 -2.5 45.5t-1.5 75.5t1 91.5t5 94.5q-17 -15 -37 -17.5t-46 5.5q0 -10 -3 -33t-7 -50t-8.5 -54t-8.5 -45q-3 -12 -8 -17.5t-10 -5.5t-8 6.5
t0 19.5q2 8 5.5 28.5t7.5 47t8.5 56t9.5 55.5q-17 8 -45 31t-50.5 60t-32 86.5t10.5 109.5q4 9 20 6t37 -13.5t43.5 -26t40.5 -31t27.5 -28t3.5 -18.5q-9 -9 -14.5 -31t-8.5 -47t-4 -46t-1 -28q26 -9 47 -5t36 33q2 13 4 24l4 22q3 15 21 14.5t43 -10t52.5 -25.5t49 -31.5
t32.5 -27.5t3 -13q-11 -13 -20 -47t-14 -77t-6 -89.5t3.5 -85t14.5 -63t28 -23.5q13 1 27.5 20t28 48t24.5 63t17 66q2 11 3.5 22.5t5.5 24.5q2 8 8.5 7t13 -5.5t10 -11t0.5 -10.5z" />
    <glyph glyph-name="s.001" unicode="&#xe018;" horiz-adv-x="466" 
d="M526 290q-12 -55 -3 -83t33 -37t61.5 -2t82.5 22.5t96 36.5t102 40q94 34 160.5 29t106 -33.5t51 -71.5t-4 -84t-59.5 -71.5t-115 -33.5q-6 0 -6.5 5.5t5.5 5.5q51 0 85.5 22.5t49 54t8 66t-36.5 58.5t-85.5 31.5t-138.5 -14.5q-65 -17 -132 -38.5t-125.5 -34.5
t-103 -9.5t-63.5 36.5q-18 -55 -46.5 -98t-64 -72.5t-77 -45.5t-84.5 -17q-49 -2 -89 15.5t-69.5 46t-50 65t-31 73t-11 69.5t8.5 55.5t28 30t48 -6.5q17 -9 37 -29t37.5 -45.5t30 -52.5t16 -48.5t-5 -33.5t-33.5 -8q-26 4 -39 -7.5t-12.5 -27t15 -28t43.5 -10.5
q24 2 41 15.5t24 36.5t3 54.5t-21 68.5q-16 35 -37 62t-42 50t-40 43t-30.5 41t-14 44.5t9.5 52.5q16 38 47.5 59.5t69.5 27t78.5 -3.5t74 -32.5t55.5 -61t23 -87.5q0 -15 -11.5 -21t-25.5 -5t-26 8.5t-12 20.5q0 11 -4.5 30.5t-14 36.5t-23 27.5t-31.5 3.5
q-25 -10 -23.5 -27t18.5 -39.5t44 -49.5t54 -57.5t47.5 -64t24.5 -67.5q6 -59 -14 -103q31 28 56 71t39 105q2 27 10 61q2 8 8.5 7t13 -5.5t10 -11t0.5 -10.5z" />
    <glyph glyph-name="t.001" unicode="&#xe020;" horiz-adv-x="304" 
d="M367 290q-12 -55 -3 -83t33 -37t61.5 -2t82.5 22.5t95.5 36.5t102.5 40q94 34 160.5 29t106 -33.5t51 -71.5t-4 -84t-59.5 -71.5t-115 -33.5q-6 0 -6.5 5.5t5.5 5.5q51 0 85.5 22.5t49 54t8 66t-36.5 58.5t-85.5 31.5t-138.5 -14.5q-65 -17 -132 -38.5t-126 -34
t-103.5 -9t-62.5 36.5q-18 -63 -46.5 -115t-75.5 -92q-27 -23 -58 -28.5t-60 12t-53 61t-36 119.5q-8 53 -11 162t2 267l-46 -2q-4 2 -2.5 13.5t6 24t10 22.5t10.5 10l25 -4q0 13 0.5 31t1.5 36.5t1.5 36.5t1.5 31q1 16 19 15.5t43.5 -10.5t54 -26t51.5 -31.5t35 -27.5
t4 -13q-2 -2 -3 -10.5t-2.5 -20t-2.5 -24t-2 -20.5q11 -2 22 -2.5t22 -1.5q5 0 8 -4.5t3.5 -10t-2 -10.5t-7.5 -6q-21 -2 -51 0q-5 -42 -8 -95.5t-4.5 -109.5t-0.5 -109.5t6 -95.5t14 -67.5t24 -24.5q13 1 27 17.5t27 43t24.5 60t18.5 67.5q2 12 3.5 26t6.5 30q2 8 8.5 7
t13 -5.5t10 -11t0.5 -10.5z" />
    <glyph glyph-name="u.001" unicode="&#xe021;" 
d="M668 290q-12 -55 -3 -83t33 -37t61.5 -2t82.5 22.5t95.5 36.5t102.5 40q94 34 160.5 29t106 -33.5t51 -71.5t-4 -84t-59.5 -71.5t-115 -33.5q-6 0 -6.5 5.5t5.5 5.5q51 0 85.5 22.5t49 54t8 66t-36.5 58.5t-85.5 31.5t-138.5 -14.5q-64 -17 -131 -38.5t-125.5 -34.5
t-103 -10t-63.5 36q-17 -61 -45.5 -113.5t-74.5 -91.5q-27 -23 -59.5 -28.5t-62.5 11.5t-53.5 61t-31.5 120q-11 -53 -41 -93.5t-77 -49.5q-48 -9 -84 10t-60.5 57t-37 89t-12.5 106v82.5t0.5 52t1 34t1.5 28t2.5 35.5t3.5 55q0 10 16.5 9t40.5 -9.5t51 -22t50 -27
t36.5 -25.5t10.5 -17q-6 -10 -9 -23t-5 -36t-3 -59t-3 -92q-2 -64 6.5 -100.5t24.5 -46.5t30.5 2.5t25.5 34t18 45.5t8 36q0 22 1 64t3 90t6 94.5t10 77.5q3 15 21 14.5t43 -10t52.5 -25.5t49 -31.5t32.5 -27.5t3 -13q-11 -13 -20 -47t-14 -77t-6 -89.5t3.5 -85t14.5 -63
t28 -23.5q13 1 26.5 16.5t26 41t23 58t18.5 65.5q1 14 3 29.5t7 33.5q2 8 8.5 7t13 -5.5t10 -11t0.5 -10.5z" />
    <glyph glyph-name="v.001" unicode="&#xe022;" horiz-adv-x="584" 
d="M644 357q-6 -21 -6 -42q-3 -40 11 -59t40 -23t62.5 5t79.5 24t90 34.5t95 37.5q94 34 160.5 29t106 -33.5t51 -71.5t-4 -84t-59.5 -71.5t-115 -33.5q-6 0 -6.5 5.5t5.5 5.5q51 0 85.5 22.5t49 54t8 66t-36.5 58.5t-85.5 31.5t-138.5 -14.5q-45 -12 -91.5 -26.5t-90.5 -27
t-84.5 -21.5t-73 -8.5t-55.5 11t-33 37.5q-25 -32 -62.5 -51.5t-93.5 -11.5q-17 -53 -43 -97t-55 -76.5t-59 -51.5t-54 -20q-58 -4 -100.5 27t-72 83t-49 117.5t-31.5 131.5t-19 125t-12 98q-3 18 12.5 18.5t40 -10t53 -28.5t52.5 -37t38.5 -35.5t11.5 -24.5q-6 -14 -5 -51
t6 -84t13 -97.5t16.5 -92.5t17 -69t14.5 -26t14.5 22.5t18.5 55t19.5 74t15.5 79.5q-35 20 -56 57.5t-29 81.5t-3.5 90t21.5 83.5t46.5 61t70.5 23.5q56 0 94.5 -23.5t55 -72t10.5 -121.5t-39 -172q13 -4 30 -4t35 6.5t36 21t34 39.5q0 15 2.5 33.5t8.5 41.5q2 8 8.5 7
t13 -5.5t10 -11t0.5 -10.5zM308 264q3 19 9 50t12 66t10.5 69.5t3.5 61.5t-9 42.5t-26 11.5q-25 -6 -42.5 -25.5t-27 -47t-10 -60.5t7.5 -64.5t26 -59t46 -44.5z" />
    <glyph glyph-name="w.001" unicode="&#xe023;" horiz-adv-x="868" 
d="M936 357q-12 -55 -3 -83t33 -37t61.5 -2t82.5 22.5t95.5 36.5t102.5 40q94 34 160.5 29t106 -33.5t51 -71.5t-4 -84t-59 -71.5t-115.5 -33.5q-6 0 -6.5 5.5t5.5 5.5q51 0 85.5 22.5t49 54t8 66t-36.5 58.5t-85.5 31.5t-138.5 -14.5q-46 -12 -94 -27t-93.5 -28t-86.5 -21
t-73.5 -6.5t-54.5 15t-29 43.5q-25 -37 -64 -59.5t-99 -14.5q-17 -53 -43 -97t-55 -76.5t-59 -51.5t-54 -20q-45 -3 -80 15.5t-62 51t-47 76.5t-35 94q-6 -41 -14 -76.5t-18.5 -61t-23.5 -40t-29 -14.5q-58 0 -96.5 30t-63.5 77.5t-38.5 108t-20.5 121t-11 116t-9 94.5
q-3 18 12 17.5t38.5 -12t51 -31t50.5 -39.5t37 -37.5t11 -24.5q-6 -14 -7 -48t2 -76.5t9 -88t14 -80.5t17 -54.5t17 -11.5q1 1 7 24t13 58.5t13.5 80t9.5 90.5q-12 66 -19 125t-12 98q-3 18 12.5 18.5t40 -10t53 -28.5t52.5 -37t38.5 -35.5t11.5 -24.5q-6 -14 -5 -51t6 -84
t13 -97.5t16.5 -92.5t17 -69t14.5 -26t14.5 22.5t18.5 55t19.5 74t15.5 79.5q-35 20 -56 57.5t-29 81.5t-3.5 90t21.5 83.5t46.5 61t70.5 23.5q56 0 94.5 -23.5t55 -72t10.5 -121.5t-39 -172q14 -5 33 -4.5t38.5 9t39 27t35.5 50.5q2 13 3.5 26.5t6.5 29.5q2 8 8.5 7
t13 -5.5t10 -11t0.5 -10.5zM590 264q3 19 9 50t12 66t10.5 69.5t3.5 61.5t-9 42.5t-26 11.5q-25 -6 -42.5 -25.5t-27 -47t-10 -60.5t7.5 -64.5t26 -59t46 -44.5z" />
    <glyph glyph-name="x.001" unicode="&#xe024;" horiz-adv-x="519" 
d="M585 290q-12 -55 -3 -83t33 -37t61.5 -2t82.5 22.5t95.5 36.5t102.5 40q94 34 160.5 29t106 -33.5t51 -71.5t-4 -84t-59.5 -71.5t-115 -33.5q-6 0 -6.5 5.5t5.5 5.5q51 0 85.5 22.5t49 54t8 66t-36.5 58.5t-85.5 31.5t-138.5 -14.5q-64 -17 -131 -38.5t-125.5 -34.5
t-103 -10t-63.5 35q-9 -35 -20 -67.5t-25.5 -60t-33.5 -47.5t-43 -29q-39 -14 -73.5 -7.5t-65.5 28t-57.5 56.5t-49.5 78q-23 -36 -43 -70.5t-35 -63.5q-4 -2 -10.5 -4t-12.5 -2t-9.5 1t-1.5 5q13 30 38 73.5t57 94.5q-30 63 -52.5 133t-39.5 136q-3 -26 -6.5 -53
t-7.5 -51.5t-7.5 -44.5t-5.5 -32q-3 -12 -8 -17.5t-10 -5.5t-8 6.5t0 19.5q1 5 3 23.5t4 44t3.5 56t3 61.5t2.5 59.5t0 49.5v1q-3 15 14 16.5t44.5 -6.5t59 -22.5t57 -29.5t40 -28.5t6.5 -19.5q-1 -8 2 -20t7.5 -27t9.5 -31t9 -32q23 34 44 64.5t39 56t31.5 44.5t21.5 30
q4 2 13 -7t17 -21.5t13.5 -24.5t2.5 -15q-12 -3 -29.5 -18t-39.5 -38.5t-47 -54t-51 -65.5q13 -42 31 -85.5t37 -78t38.5 -55.5t36.5 -20q27 2 53.5 53.5t43.5 145.5q2 11 4 21.5t5 23.5q2 8 8.5 7t13 -5.5t10 -11t0.5 -10.5z" />
    <glyph glyph-name="y.001" unicode="&#xe025;" 
d="M667 290q-12 -55 -3 -83t33 -37t61.5 -2t82.5 22.5t95.5 36.5t102.5 40q94 34 160.5 29t106 -33.5t51 -71.5t-4 -84t-59.5 -71.5t-115 -33.5q-6 0 -6.5 5.5t5.5 5.5q51 0 85.5 22.5t49 54t8 66t-36.5 58.5t-85.5 31.5t-138.5 -14.5q-44 -12 -89 -26t-88.5 -26.5
t-83.5 -21.5t-72.5 -9.5t-56.5 8.5t-35 33q-23 -51 -56.5 -84.5t-73.5 -58.5q-2 -51 -5.5 -103.5t-11 -102t-20 -93.5t-32 -76.5t-46 -51.5t-62.5 -19q-36 -6 -71.5 7t-62.5 39.5t-40 64.5t-3.5 83t46.5 93.5t110 96.5l4 126q-20 -41 -50 -71.5t-68 -38.5q-48 -9 -84 10
t-60.5 57t-37 89t-12.5 106v82.5t0.5 52t1 34t1.5 28t2.5 35.5t3.5 55q0 10 16.5 9t40.5 -9.5t51 -22t50 -27t36.5 -25.5t10.5 -17q-6 -10 -9 -23t-5 -36t-3 -59t-3 -92q-2 -64 6.5 -107t24.5 -53q13 -8 25.5 -1t24.5 22.5t21.5 36.5t16.5 41v86.5t1.5 102t4.5 97.5t9 72
q3 15 21 14.5t43 -10t52.5 -25.5t49 -31.5t32.5 -27.5t3 -13q-8 -9 -12 -27.5t-5.5 -43.5t-2 -55.5t-1.5 -63.5q-1 -32 -0.5 -75.5t-0.5 -94.5q38 26 70 63.5t50 94.5q2 29 10 61q2 8 8.5 7t13 -5.5t10 -11t0.5 -10.5zM297 -258q1 6 2 29q1 19 2.5 57t3.5 104
q-57 -43 -81 -83.5t-26 -73.5t11.5 -55.5t32 -29.5t35 5t20.5 47z" />
    <glyph glyph-name="z.001" unicode="&#xe026;" horiz-adv-x="614" 
d="M674 290q-12 -55 -3 -83t33 -37t61.5 -2t82.5 22.5t96 36.5t102 40q94 34 160.5 29t106 -33.5t51 -71.5t-4 -84t-59 -71.5t-115.5 -33.5q-6 0 -6.5 5.5t5.5 5.5q51 0 85.5 22.5t49 54t8 66t-36.5 58.5t-85.5 31.5t-138.5 -14.5q-43 -11 -87 -25t-86.5 -26.5t-81.5 -21
t-72 -10.5t-57.5 5.5t-37.5 28.5q-17 -48 -48 -95.5t-85 -85.5l6 -29q6 -44 -0.5 -93.5t-25 -96.5t-50 -88t-74 -68t-96.5 -35.5t-118 9.5q-55 15 -74 55t1 91.5t80 107.5t163 103q-2 34 -12 61.5t-29.5 41.5t-49 11t-70.5 -28q-4 -4 -19 9t-29 34t-22.5 44.5t0.5 41.5
q11 22 18.5 35.5t15 26t17.5 29t26 44t39.5 70t58.5 108.5q-30 -19 -62 -24.5t-57.5 -5.5t-42.5 2t-17 -2q-9 -73 -24.5 -138t-31.5 -117q-8 -17 -19 -16.5t-7 16.5q33 121 43 211t5 135q3 11 15.5 9.5t31.5 -8t43.5 -15t53 -11.5t60 2t63.5 26q7 6 26.5 4t44.5 -8.5t51 -16
t46.5 -19t31.5 -17.5t5 -11q-33 -17 -71.5 -55t-74.5 -84t-65 -94t-43 -84q16 16 46.5 21t64.5 -7.5t66 -45.5t52 -93q55 41 86.5 95t43.5 110q1 14 3.5 30t7.5 36q2 8 8.5 7t13 -5.5t10 -11t0.5 -10.5zM166 -341q30 -5 57 16.5t47.5 58t34 82.5t17.5 91q-71 -39 -118 -80.5
t-68 -76.5t-14 -60t44 -31z" />
    <glyph glyph-name="braceleft" unicode="{" horiz-adv-x="469" 
d="M409 -191q-68 -1 -122.5 23t-92.5 65t-58.5 96t-20.5 116q0 56 -6.5 87t-17.5 46t-24 20t-24 8t-19 9.5t-8 25.5q-1 20 6 25.5t17.5 7t23 5t23.5 19.5t18 50t8 96q0 60 24 114t64.5 94.5t94.5 63.5t114 21q10 0 19 -3.5t13 -8t1.5 -9t-14.5 -5.5q-35 -4 -60 -28.5
t-41 -62t-24.5 -83.5t-9.5 -93q-2 -67 -15.5 -102.5t-32 -51.5t-40 -18t-39.5 -3t-30 -5.5t-12 -25.5q0 -18 13 -22.5t32 -5t41 -3t40.5 -17t30 -47t10.5 -93.5q-2 -53 5.5 -103.5t25 -89.5t45 -62t65.5 -23q13 0 15 -4t-3 -9.5t-15 -9.5t-20 -4z" />
    <glyph glyph-name="bar" unicode="|" horiz-adv-x="297" 
d="M38 804q0 3 16 2.5t39 -4t50 -9t50.5 -11t39 -10t16.5 -7.5q0 -65 -0.5 -141t-1 -158t-1 -167t-0.5 -168t0.5 -160t2.5 -143q0 -7 -15.5 -10t-38.5 -2.5t-50.5 4.5t-50.5 10t-39 13.5t-17 16.5v111t0.5 153t0.5 178v185v173t-1 144z" />
    <glyph glyph-name="braceright" unicode="}" horiz-adv-x="474" 
d="M57 -193q-10 0 -20 4t-15 9.5t-3.5 9.5t15.5 4q38 0 65.5 23t44.5 62t24.5 89.5t6.5 103.5q-2 61 10 93.5t30.5 47t40.5 17t41 3t32 4.5t13 23q0 21 -12 25.5t-30 5.5t-39.5 3t-40 18t-32 51.5t-15.5 102.5q-2 47 -10 93t-24 83.5t-41 62t-60 28.5q-12 1 -14.5 5.5t1.5 9
t13 8t19 3.5q60 2 114 -21t94.5 -63.5t64.5 -94.5t24 -114q1 -62 8 -96t18 -50t23.5 -19.5t23 -5t17 -7t6.5 -25.5q-1 -19 -8.5 -25.5t-18.5 -9.5t-24 -8t-23.5 -20t-18 -46t-6.5 -87q0 -61 -20.5 -116t-58.5 -96t-93 -65t-122 -23z" />
    <glyph glyph-name="asciitilde" unicode="~" horiz-adv-x="632" 
d="M500 400q0 9 8.5 5.5t18.5 -14t18.5 -25t8.5 -26.5q1 -73 -18.5 -112.5t-51 -56t-72.5 -14.5t-84 11.5t-84 22.5t-73 19t-51.5 -0.5t-19.5 -35.5q0 -12 -9 -7t-19.5 18.5t-19 31t-8.5 30.5q1 69 21.5 105.5t53 50t73 9.5t83 -15t83 -24t72 -18t51 4t19.5 41z" />
    <glyph glyph-name="multiply" unicode="&#xd7;" horiz-adv-x="664" 
d="M244 592q23 -35 44 -64t40 -55q20 26 40.5 55t44.5 64q2 6 17.5 6.5t37 -2.5t45 -9.5t42.5 -14t29.5 -15.5t5.5 -15l-156 -208q37 -47 74 -96t84 -113q4 -9 -6 -17.5t-28.5 -16t-42 -12.5t-45 -7t-38 0t-21.5 9l-83 112l-82 -112q-5 -7 -21.5 -9t-38 0t-45 7t-42 12.5
t-29 16t-5.5 17.5q46 64 83.5 113t74.5 96l-156 208q-5 7 5.5 15t29.5 15.5t42.5 14t45 9.5t37 2.5t17.5 -6.5z" />
    <glyph glyph-name="tilde" unicode="&#x2dc;" horiz-adv-x="514" 
d="M419 824q0 6 6 3.5t12.5 -9t12.5 -15.5t6 -16q0 -46 -13 -70.5t-35.5 -35t-51 -9.5t-58.5 7.5t-58.5 14.5t-51 11.5t-36 -0.5t-13.5 -22q0 -7 -6 -4t-13.5 11.5t-13 19.5t-5.5 19q1 43 15 65.5t36.5 31t51 6t58 -9.5t58 -15t50.5 -11t35.5 2.5t13.5 25.5z" />
    <glyph glyph-name="ampersand" unicode="&#x26;" horiz-adv-x="692" 
d="M438 579q-16 -39 -21 -60t-3 -28.5t8 -4t11 13.5q34 62 44 106.5t-20 82.5q-11 14 -27.5 4.5t-34.5 -33.5t-34 -57.5t-24.5 -68t-8 -66.5t16.5 -52q1 -2 15 -11.5t35 -23.5t48 -30.5t54 -33.5q18 30 32.5 68t22.5 86q0 11 14 4.5t30 -21t28 -32t8 -28.5
q-8 -21 -31.5 -49.5t-52.5 -58.5q33 -20 57.5 -34t28.5 -15q6 -3 9.5 -9t4.5 -12.5t-1 -11t-8 -4.5q-2 0 -11 5.5t-24 14.5t-34.5 21t-40.5 25l-30 -28q40 -28 60.5 -71t21.5 -90.5t-16 -95t-51 -84.5t-83.5 -59.5t-113.5 -19.5q-71 3 -123 30.5t-86 70.5t-50 97
t-15.5 109.5t17.5 108t50 92.5t81 63.5t111 20.5q-72 31 -106 78t-37.5 96t18.5 93t62 69.5t94.5 25.5t115.5 -39q41 -26 55 -62t10 -73.5t-21 -72.5t-38.5 -59.5t-43.5 -34t-34.5 3t-12 52t23.5 113.5q5 14 14.5 14t18 -6t14.5 -15t3 -14zM365 151q-15 -9 -22.5 -7.5t-9 8
t3 14.5t13.5 13q10 4 25 13t33 23t37.5 33.5t37.5 46.5q-26 16 -50 31t-43 26.5t-31 18t-13 5.5q-32 -19 -53.5 -63t-30.5 -98.5t-5.5 -111t20.5 -101t48 -69.5t78 -15q41 9 69.5 42.5t39 77t0 90t-47.5 80.5q-28 -22 -53.5 -37.5t-45.5 -19.5z" />
    <glyph glyph-name="bullet" unicode="&#x2022;" horiz-adv-x="437" 
d="M61 329q0 35 13 66t35 54.5t51.5 37t62.5 13.5t62.5 -13.5t51.5 -37t35 -54.5t13 -66t-13 -66.5t-35 -54.5t-51.5 -36.5t-62.5 -13.5t-62.5 13.5t-51.5 36.5t-35 54.5t-13 66.5z" />
    <glyph glyph-name="dollar" unicode="$" horiz-adv-x="593" 
d="M256 804q1 5 9 1t18 -11.5t18.5 -16t9.5 -12.5v-24q53 -5 101.5 -28t82 -64t46 -101.5t-6.5 -140.5q-5 -18 -22 -24.5t-39.5 -4.5t-47.5 10.5t-45 19.5t-32 23t-9 21q17 89 5.5 138t-34.5 65q0 -73 -0.5 -151t-1.5 -162q35 -20 74 -32.5t72.5 -35t55.5 -62t23 -112.5
q0 -48 -18.5 -85t-49.5 -62.5t-71.5 -40t-84.5 -16.5l2 -68q0 -11 -8 -12t-18 4t-19 16t-10 24v37q-53 6 -100.5 29.5t-80.5 64.5t-45 101t8 139q4 18 21.5 24.5t40 4.5t47.5 -10.5t45 -19.5t32 -23t9 -21q-17 -83 -7.5 -132t30.5 -67q0 66 0.5 145t0.5 167q-35 18 -73 31
t-70 35.5t-53 61.5t-22 111q-1 47 17 83.5t48 62t69.5 40.5t82.5 18v62zM357 94q2 65 -12 104t-37 64q-2 -146 0 -279q19 11 33 39t16 72zM215 544q-2 -60 10 -98t32 -63v268q-17 -14 -29 -40.5t-13 -66.5z" />
    <glyph glyph-name="emdash" unicode="&#x2014;" horiz-adv-x="700" 
d="M618 363q6 1 9.5 -10t4 -28.5t-1 -38t-6 -38.5t-10.5 -30t-14 -12h-59.5h-92t-109 -0.5t-110.5 -0.5t-96 0.5t-66 2.5q-8 0 -12.5 12t-6.5 29t-1 37.5t5 38t10.5 29t15.5 12.5h98.5t81.5 -0.5t74 -0.5t77.5 -0.5t92 -1t116.5 -0.5z" />
    <glyph glyph-name="endash" unicode="&#x2013;" horiz-adv-x="635" 
d="M563 363q6 1 9.5 -10t4 -28.5t-1 -38t-6 -38.5t-10.5 -30t-14 -12h-55.5h-82t-95.5 -0.5t-97 -0.5t-86 0.5t-62 2.5q-8 0 -12.5 12t-6.5 29t-1 37.5t5 38t10.5 29t15.5 12.5h94t71 -0.5t61.5 -0.5t65 -0.5t81.5 -1t112 -0.5z" />
    <glyph glyph-name="minus" unicode="&#x2212;" horiz-adv-x="672" 
d="M604 363q6 1 9.5 -10t4 -28.5t-1 -38t-6 -38.5t-10.5 -30t-14 -12h-58.5h-89.5t-105.5 -0.5t-107 -0.5t-93.5 0.5t-65 2.5q-8 0 -12.5 12t-6.5 29t-1 37.5t5 38t10.5 29t15.5 12.5h97t78.5 -0.5t71 -0.5t74.5 -0.5t89.5 -1t115.5 -0.5z" />
    <glyph glyph-name="plusminus" unicode="&#xb1;" horiz-adv-x="543" 
d="M469 116q6 2 9.5 -9.5t4 -29t-1 -38t-6 -38.5t-10.5 -30t-14 -12q-29 1 -79.5 0.5t-106.5 -1t-110 0t-88 2.5q-8 0 -12.5 12t-6.5 29t-1 37.5t5 38t10.5 29t15.5 12.5h87t53.5 -0.5t38.5 -0.5t42 -0.5t64.5 -1t105.5 -0.5zM187 575q-2 6 9.5 9.5t29 4t38 -1t38.5 -6
t30 -10.5t12 -14q-1 -18 -1 -46t1 -61q23 -1 53 -1h72q6 1 9.5 -10t4 -28.5t-1 -38t-6 -38.5t-10.5 -30t-14 -12h-107v-66t-2 -53q0 -8 -12 -12.5t-29 -6.5t-37.5 -1t-38 5t-29.5 10.5t-12 15.5v107q-34 0 -65 0.5t-52 2.5q-8 0 -12.5 12t-6.5 29t-1 37.5t5 38t10.5 29
t15.5 12.5h108v52t1 71z" />
    <glyph glyph-name="acute" unicode="&#xb4;" horiz-adv-x="365" 
d="M112 829q9 11 32 22.5t51 21.5t57 16t50 6.5t29.5 -7t-4.5 -24.5q-57 -48 -92.5 -78t-57 -47.5t-33 -26t-20.5 -12.5q-11 -5 -27.5 -9.5t-31 -6.5t-23.5 -1t-6 6z" />
    <glyph glyph-name="caron" unicode="&#x2c7;" horiz-adv-x="669" 
d="M313 689q3 -5 -6 -6t-23.5 1t-31 6.5t-27.5 9.5q-9 4 -20.5 12.5t-33 26t-57 47.5t-92.5 78q-13 17 -4.5 24.5t29.5 7t50 -6.5t57 -16t51 -21.5t32 -22.5zM404 829q9 11 32 22.5t51 21.5t57 16t50 6.5t29.5 -7t-4.5 -24.5q-57 -48 -92.5 -78t-57 -47.5t-33 -26
t-20.5 -12.5q-11 -5 -27.5 -9.5t-31 -6.5t-23.5 -1t-6 6z" />
    <glyph glyph-name="circumflex" unicode="&#x2c6;" horiz-adv-x="645" 
d="M240 779q-9 -11 -32 -22.5t-51 -21.5t-57 -16t-50 -6.5t-29.5 7t4.5 24.5q57 48 92.5 78t57 47.5t33 26t20.5 12.5q11 5 27.5 9.5t31 6.5t23.5 1t6 -6zM331 919q-3 5 6 6t23.5 -1t31 -6.5t27.5 -9.5q9 -4 20.5 -12.5t33 -26t57 -47.5t92.5 -78q13 -17 4.5 -24.5t-29.5 -7
t-50 6.5t-57 16t-51 21.5t-32 22.5z" />
    <glyph glyph-name="fraction" unicode="&#x2044;" horiz-adv-x="506" 
d="M303 849q1 6 19 7t44 -2.5t56.5 -9.5t55.5 -13.5t40.5 -16t12.5 -15.5q-39 -97 -81.5 -204t-85.5 -217t-85 -218.5t-78 -207.5q-3 -7 -22 -9t-45.5 0t-56.5 7t-54.5 12.5t-40 16t-12.5 17.5q17 42 41.5 104t53.5 136.5t60.5 156t63 162.5t61 156.5t53.5 137.5z" />
    <glyph glyph-name="hungarumlaut" unicode="&#x2dd;" horiz-adv-x="616" 
d="M112 829q9 11 32 22.5t51 21.5t57 16t50 6.5t29.5 -7t-4.5 -24.5q-57 -48 -92.5 -78t-57 -47.5t-33 -26t-20.5 -12.5q-11 -5 -27.5 -9.5t-31 -6.5t-23.5 -1t-6 6zM362 829q9 11 32 22.5t51 21.5t57 16t50 6.5t29.5 -7t-4.5 -24.5q-57 -48 -92.5 -78t-57 -47.5t-33 -26
t-20.5 -12.5q-11 -5 -27.5 -9.5t-31 -6.5t-23.5 -1t-6 6z" />
    <glyph glyph-name="ring" unicode="&#x2da;" horiz-adv-x="394" 
d="M54 682q0 29 11 55t30 45t44.5 30t54.5 11t55 -11t45 -30t30 -45t11 -55t-11 -54.5t-30 -44.5t-45 -30t-55 -11t-54.5 11t-44.5 30t-30 44.5t-11 54.5zM154 680q0 -18 2 -36.5t6.5 -33.5t12.5 -24.5t19 -9.5t18.5 9.5t11.5 24.5t5.5 33.5t1.5 36.5t-1.5 37.5t-5.5 35.5
t-11.5 26t-18.5 10t-19 -10t-12.5 -26t-6.5 -35.5t-2 -37.5z" />
    <glyph glyph-name="degree" unicode="&#xb0;" horiz-adv-x="441" 
d="M37 500q0 37 14 70t38.5 58t57 39t69.5 14t70 -14t58 -39t39 -58t14 -70t-14 -69.5t-39 -57t-58 -38.5t-70 -14t-69.5 14t-57 38.5t-38.5 57t-14 69.5zM165 498q0 -24 2.5 -47.5t8.5 -42.5t16 -31t24 -12q15 0 24 12t14 31t7 42.5t2 47.5t-2 48.5t-7 45t-14 33.5t-24 13
q-14 0 -24 -13t-16 -33.5t-8.5 -45t-2.5 -48.5z" />
    <glyph glyph-name="section" unicode="&#xa7;" horiz-adv-x="551" 
d="M151 208q-38 18 -59 43.5t-27 51t4 48.5t35 36q-29 22 -49 58.5t-20 97.5q2 56 28.5 96.5t67 65t90 32.5t98 -1t91 -34.5t69 -68.5t31.5 -103.5t-21 -139.5q-6 -18 -23.5 -21t-40 3.5t-47 19.5t-44.5 28.5t-32 30.5t-9 24q22 66 26.5 109.5t-2 65.5t-20 25t-27.5 -11
t-24.5 -43.5t-10.5 -71.5q0 -55 6 -88.5t23 -57t46.5 -42t76.5 -44.5q37 -18 58.5 -43.5t27.5 -51.5t-4.5 -48.5t-35.5 -35.5q29 -22 49 -59t21 -97q-2 -56 -28.5 -96.5t-67 -65t-90 -32.5t-98 1t-91 34.5t-68.5 68.5t-31.5 103.5t20.5 139.5q6 18 23.5 21t40 -3.5t47 -19.5
t44.5 -28.5t32 -30.5t9 -24q-22 -66 -26.5 -109.5t2 -65.5t20 -25t27.5 11t24.5 43.5t10.5 71.5q0 52 -5.5 83.5t-22 54.5t-46.5 43.5t-78 50.5zM274 317q-44 5 -69 -3.5t-28 -25.5t18 -38.5t69 -41.5q43 -6 68 3t28 25.5t-17.5 38.5t-68.5 42z" />
    <glyph glyph-name="germandbls" unicode="&#xdf;" horiz-adv-x="693" 
d="M181 -400q-28 0 -52 8.5t-43.5 30.5t-35 61t-26 101t-16.5 149t-7 205q-1 170 16 279t54.5 172t97 87t142.5 23q43 0 81.5 -8t66.5 -26t44 -49t15 -77q-1 -39 -16.5 -62.5t-38.5 -36.5t-50 -18.5t-50.5 -9t-40.5 -7t-20 -12.5q-4 -11 17 -14.5t55 -8t74.5 -13t76.5 -28.5
t61 -54.5t28 -91.5q3 -50 -14 -87.5t-46 -61t-66.5 -34t-75.5 -7.5t-72.5 19.5t-58.5 47t-33.5 74.5t3.5 102q3 14 10.5 16.5t17 -2t20 -13t20.5 -15.5q-12 -39 -10 -71t12 -53t25.5 -29t30 0.5t25.5 36t12 77.5q1 43 -11 69t-30 42t-39.5 25.5t-40 19t-30.5 23t-11 37.5
q0 16 6.5 23.5t15.5 11.5t20 6.5t20.5 9.5t16 20.5t8.5 39.5q2 41 -6 69t-22 42.5t-31 15.5t-32.5 -13t-26 -43t-11.5 -73q-1 -43 -1.5 -105t0.5 -133.5t3 -147.5t5 -145.5t7.5 -128t11.5 -95.5q0 -26 -3.5 -56t-10 -55.5t-17 -42t-24.5 -16.5z" />
    <glyph glyph-name="dotlessi" unicode="&#x131;" horiz-adv-x="426" 
d="M129 143q-1 11 -2 37t-1.5 61.5t0 76.5t2.5 82q-1 -1 -1 -2q-18 -39 -42.5 -39.5t-43.5 25.5t-28.5 71.5t2.5 99.5q15 23 44.5 27.5t64.5 -3.5t72 -25t69 -36.5t54 -38t26 -28.5q-11 -13 -20 -47t-14 -77t-6 -89.5t3.5 -85t14.5 -63t28 -23.5q14 1 29.5 22t30 52.5
t25.5 69t16 70.5q1 4 5.5 6t9 1.5t8 -5t2.5 -11.5q-16 -95 -50.5 -171t-90.5 -121q-27 -22 -60 -28t-63 11.5t-53.5 61t-30.5 119.5z" />
    <glyph glyph-name="a.002" unicode="&#xe027;" horiz-adv-x="595" 
d="M621 280q2 7 7 10.5t9.5 2.5t7.5 -6.5t1 -15.5q-6 -32 -16.5 -71.5t-26.5 -79.5t-40 -77t-57 -64q-27 -22 -59.5 -27.5t-62.5 11.5t-53.5 60.5t-31.5 119.5q-11 -53 -41 -93.5t-77 -49.5q-44 -9 -78 6.5t-58 47.5t-38 76.5t-18 94.5q-20 -35 -49 -51.5t-64.5 -20.5
t-76.5 3t-86 19.5t-93 27.5t-96 28q-83 22 -138.5 14.5t-85.5 -31.5t-36.5 -58.5t8 -66t49 -54t85.5 -22.5q6 0 5.5 -5.5t-6.5 -5.5q-72 3 -115.5 33.5t-59 71.5t-4 84t51 71.5t106 33.5t160.5 -29q72 -27 141 -52t128.5 -33.5t104.5 7.5t69 71q0 46 8.5 91t26 83.5t44 66.5
t62 40.5t81 6t99.5 -37.5l6 34q3 15 21 14.5t43 -10t52.5 -25.5t49 -31.5t32.5 -27.5t3 -13q-11 -13 -20 -47t-14 -77t-6 -89.5t3.5 -85t14.5 -63t28 -23.5q14 1 29 20.5t28.5 50.5t25 68.5t17.5 74.5zM212 71q16 -10 29 3.5t23.5 38t17.5 54t12 51.5q0 17 0.5 47.5t2 67
t3.5 75.5t5 73q-28 4 -48.5 -10.5t-35.5 -41t-24 -61.5t-13 -73t-3.5 -75.5t4.5 -68.5t11 -52.5t16 -27.5z" />
    <glyph glyph-name="b.002" unicode="&#xe028;" horiz-adv-x="611" 
d="M647 306q18 0 24.5 -5.5t5 -12t-8.5 -11.5t-16 -5q-38 -2 -72.5 -8t-66.5 -16q-6 -45 -18.5 -88.5t-31 -80.5t-42.5 -65.5t-51.5 -43.5t-59 -14.5t-64.5 21.5q-31 19 -38.5 43.5t2.5 51.5t35.5 55.5t60.5 54.5q6 48 7.5 99.5t-2.5 94.5t-15.5 71t-30.5 29
q-23 1 -41 -12.5t-33 -36.5q-1 -69 -1 -137.5v-126t-0.5 -98.5t-3.5 -54q-7 -13 -23.5 -13t-37 7.5t-42.5 20t-40.5 27t-30.5 27.5t-12 20v136q-19 -39 -47.5 -58t-64 -24t-77.5 1.5t-88 19t-95 28t-99 28.5q-83 22 -138.5 14.5t-85.5 -31.5t-36.5 -58.5t8 -66t49 -54
t85.5 -22.5q6 0 5.5 -5.5t-6.5 -5.5q-72 3 -115.5 33.5t-59 71.5t-4 84t51 71.5t106 33.5t160.5 -29q50 -19 99 -37t94.5 -31t86.5 -18.5t74.5 2.5t58.5 31t38 67v571q0 16 18.5 15t45.5 -11t58 -26.5t55.5 -32.5t38 -28t5.5 -13q-7 -14 -12 -40t-8.5 -61.5t-5.5 -77.5
t-3 -88q23 26 52 44t67 23q60 8 100.5 -12t65.5 -58.5t34 -90.5t6 -109q69 20 130 20zM242 37q8 -11 15.5 -8.5t14.5 15.5t13.5 34.5t11.5 48.5q-33 -31 -47.5 -56t-7.5 -34z" />
    <glyph glyph-name="c.002" unicode="&#xe029;" horiz-adv-x="458" 
d="M316 371q-24 -28 -37 -32.5t-18.5 4t-4 25.5t7 32.5t14 25t17.5 2.5q4 -8 13.5 -2.5t16 16t7 23t-13.5 18.5q-25 11 -47.5 -12t-39 -65.5t-25.5 -98t-7 -109t16.5 -97.5t45.5 -64q22 -15 54.5 -11.5t64.5 30.5t60 80t42 138q1 10 6 14t10 3t8 -6.5t2 -15.5
q-22 -152 -94.5 -233t-198.5 -79q-57 1 -98 22.5t-67 57t-38.5 81t-12.5 95.5q-21 -30 -50 -44t-64 -16t-75.5 5.5t-84 19.5t-90 26.5t-93.5 26.5q-83 22 -138.5 14.5t-85.5 -31.5t-36.5 -58.5t8 -66t49 -54t85.5 -22.5q6 0 5.5 -5.5t-6.5 -5.5q-72 3 -115.5 33.5t-59 71.5
t-4 84t51 71.5t106 33.5t160.5 -29q70 -26 137.5 -50.5t126 -33.5t104 4t70.5 62q5 65 28 127t60 105t86 60.5t106 -5.5q26 -11 47 -26t35 -26q15 -12 13.5 -27t-11.5 -30.5t-24 -30t-24 -25.5z" />
    <glyph glyph-name="d.002" unicode="&#xe030;" horiz-adv-x="609" 
d="M634 280q1 7 6 11t10 3t8.5 -6.5t1.5 -16.5q-11 -53 -23 -95.5t-27.5 -77t-37.5 -63.5t-53 -56q-27 -23 -59.5 -28.5t-62.5 11.5t-53.5 61t-31.5 120q-11 -53 -41 -93.5t-77 -49.5q-44 -9 -78.5 7t-58.5 49t-38 78.5t-18 95.5q-29 -55 -78 -69t-111 -5t-133.5 32
t-144.5 43q-83 22 -138.5 14.5t-85.5 -31.5t-36.5 -58.5t8 -66t49 -54t85.5 -22.5q6 0 5.5 -5.5t-6.5 -5.5q-72 3 -115.5 33.5t-59 71.5t-4 84t51 71.5t106 33.5t160.5 -29l96 -36t92.5 -31t85 -18.5t74 0.5t58.5 26t40 59q0 67 19.5 130t58 103.5t97 48.5t136.5 -34
q1 53 2.5 105t3.5 96t5 77.5t6 49.5q3 15 21 14.5t43 -10t52.5 -25.5t49 -31.5t32.5 -27.5t3 -13q-6 -7 -10.5 -40.5t-8.5 -82t-7.5 -106t-6 -111t-4 -97.5t-2.5 -66q-1 -35 0.5 -68t7 -58.5t14 -40.5t22.5 -14t29.5 20.5t29 50.5t24.5 68.5t17 74.5zM225 71q16 -10 29 3.5
t23.5 38t17.5 54t12 51.5v35t0.5 60.5t1 78.5t1.5 90q-35 1 -58.5 -26.5t-37 -71t-18 -95t-2.5 -97.5t10.5 -80t20.5 -41z" />
    <glyph glyph-name="e.002" unicode="&#xe031;" horiz-adv-x="447" 
d="M332 356q-11 -16 -26 -38t-31.5 -46t-34.5 -49t-35 -47q4 -52 17 -90.5t37 -48.5q33 -14 65.5 -1.5t61 46t51 84t35.5 113.5q2 10 6.5 11t8.5 -3t7 -11t2 -12q-8 -56 -29.5 -111.5t-57 -99t-84.5 -70.5t-112 -26q-59 1 -100.5 24t-67.5 60t-37.5 84.5t-10.5 98.5
q-30 -52 -79 -64.5t-110.5 -3t-132 32.5t-142.5 42q-83 22 -138.5 14.5t-85.5 -31.5t-36.5 -58.5t8 -66t49 -54t85.5 -22.5q6 0 5.5 -5.5t-6.5 -5.5q-72 3 -115.5 33.5t-59 71.5t-4 84t51 71.5t106 33.5t160.5 -29q73 -27 144 -52.5t131 -33.5t105 10.5t67 78.5q8 62 32 120
t60.5 97.5t83.5 55t102 -6.5q26 -11 46.5 -26t35.5 -26q14 -14 14.5 -30.5t-6.5 -34t-18 -34t-18 -29.5zM316 483q-26 3 -46.5 -19.5t-34.5 -59t-22 -83.5t-9 -94q22 34 45.5 72.5t41 74t25.5 64.5t0 45z" />
    <glyph glyph-name="f.002" unicode="&#xe032;" horiz-adv-x="338" 
d="M390 319q3 6 5 2t2.5 -11t-0.5 -14t-4 -7q-27 -2 -46.5 -3t-39 -1.5t-43.5 -0.5h-58q41 -31 66 -77t37.5 -99.5t13.5 -112t-7 -115t-23.5 -107.5t-35.5 -89.5t-43.5 -61t-47.5 -22.5q-42 0 -70.5 20t-46.5 79.5t-28 168t-14 285.5q-2 26 0 73q-30 -53 -79 -66
t-110.5 -3.5t-132 32.5t-143.5 42q-83 22 -138.5 14.5t-85.5 -31.5t-36.5 -58.5t8 -66t49 -54t85.5 -22.5q6 0 5.5 -5.5t-6.5 -5.5q-72 3 -115.5 33.5t-59 71.5t-4 84t51 71.5t106 33.5t160.5 -29q73 -27 143 -52.5t130 -33t105 9.5t68 76q1 44 3 97.5t4 109.5t4.5 112
t5.5 105t5.5 89t4.5 64q1 16 19 15.5t43 -10.5t52.5 -26t49.5 -31.5t33.5 -27.5t3.5 -13q-5 -5 -9 -30t-7.5 -61.5t-7 -81.5t-6.5 -91.5t-5 -90t-4 -77.5q26 0 54 -0.5t54 -1t48.5 -0.5t36.5 2zM221 -230q11 -5 24 16.5t22.5 60.5t13.5 90.5t-3 106t-26.5 107t-57.5 93.5
q-1 -30 -1.5 -75.5t-0.5 -97t1.5 -103.5t4.5 -95t8.5 -71t14.5 -32z" />
    <glyph glyph-name="g.002" unicode="&#xe033;" horiz-adv-x="575" 
d="M599 280q3 7 8 9.5t9.5 1t7 -7t1.5 -12.5q-15 -81 -51.5 -133t-87.5 -89q-1 -77 -8 -156.5t-26 -144.5t-52 -106.5t-87 -41.5q-36 -6 -71.5 7t-62.5 39.5t-40 64.5t-3.5 82.5t46.5 93t110 96.5q2 33 2.5 72.5t2.5 87.5q-11 -53 -41 -93.5t-77 -49.5q-44 -9 -78.5 7
t-58.5 49t-38 78.5t-17 95.5q-30 -55 -79 -69t-111 -5t-133.5 32t-144.5 43q-83 22 -138.5 14.5t-85.5 -31.5t-36.5 -58.5t8 -66t49 -54t85.5 -22.5q6 0 5.5 -5.5t-6.5 -5.5q-72 3 -115.5 33.5t-59 71.5t-4 84t51 71.5t106 33.5t160.5 -29l96 -36t92.5 -31t85 -18.5t74 0.5
t58.5 26t40 59q1 68 20.5 132t59.5 104t100 46.5t141 -39.5q1 9 2.5 17.5t3.5 16.5q3 15 21 14.5t43 -10t52.5 -25.5t49 -31.5t32.5 -27.5t3 -13q-16 -18 -21 -65t-6 -116q-1 -32 0 -78t1 -100q40 30 69.5 74t42.5 114zM214 94q16 -10 28 3t21 37t15.5 53t11.5 51
q0 17 1 45.5t2 61.5t3.5 69t5.5 68q-37 6 -61 -18.5t-38 -65t-18.5 -90t-2 -95t10.5 -78.5t21 -41zM283 -258q1 3 2 24q1 18 2.5 56t3.5 110q-57 -43 -81 -83.5t-26 -73.5t11.5 -55.5t32 -29.5t35 5t20.5 47z" />
    <glyph glyph-name="h.002" unicode="&#xe034;" horiz-adv-x="618" 
d="M523 448q-5 -24 -10.5 -61.5t-9.5 -80.5t-5.5 -86t2.5 -78t14.5 -56t30.5 -20q14 1 29 20t28.5 49t24.5 68t17 76q1 3 6 5.5t10 2.5t8.5 -3.5t1.5 -12.5q-17 -92 -47.5 -165.5t-92.5 -126.5q-27 -23 -59.5 -28.5t-63 11.5t-54 61t-30.5 120q-1 39 0.5 92t0.5 100.5
t-8.5 79t-26.5 27.5q-13 -3 -27 -29.5t-27.5 -65t-25 -82.5t-18.5 -82q0 -65 -0.5 -111.5t-3.5 -60.5q-7 -13 -23.5 -13t-37 7.5t-42.5 20t-40.5 27t-30.5 27.5t-12 20q0 8 -0.5 45t-0.5 87q-19 -38 -47.5 -56t-64 -22.5t-77.5 2t-87.5 19t-94 28t-97.5 28.5
q-83 22 -138.5 14.5t-85.5 -31.5t-36.5 -58.5t8 -66t48.5 -54t86 -22.5q6 0 5.5 -5.5t-6.5 -5.5q-72 3 -115.5 33.5t-59 71.5t-4 84t51 71.5t106 33.5t160.5 -29q49 -18 97.5 -36t93.5 -31.5t85.5 -19t74 1.5t58.5 28.5t39 62.5q0 49 0.5 104.5t1 112.5t2 112.5t4 103t6 85
t7.5 58.5q3 15 21 14.5t43 -10t52.5 -25.5t49 -31.5t32.5 -27.5t3 -13q-11 -21 -17.5 -71.5t-9.5 -117t-3.5 -142t-0.5 -147.5q9 34 20.5 70.5t25.5 70.5t30.5 62.5t36.5 47.5q24 24 50.5 30.5t51.5 0.5t47 -20t38.5 -31t25 -34t6.5 -27z" />
    <glyph glyph-name="i.002" unicode="&#xe035;" horiz-adv-x="301" 
d="M4 143q-2 11 -2.5 35.5t-1.5 58.5q-19 -39 -47 -58.5t-64 -24.5t-78 1.5t-88 19t-95 28t-99 28.5q-83 22 -138.5 14.5t-85.5 -31.5t-36.5 -58.5t8 -66t49 -54t85.5 -22.5q6 0 5.5 -5.5t-6.5 -5.5q-72 3 -115.5 33.5t-59 71.5t-4 84t51 71.5t106 33.5t160.5 -29
q50 -19 99 -37t95 -31t87 -18.5t74.5 2.5t58 31.5t37.5 67.5q0 33 1 68t3 69.5t5.5 66.5t9.5 58q3 15 21 14.5t43 -10t52.5 -25.5t49 -31.5t32.5 -27.5t3 -13q-11 -13 -20 -47t-14 -77t-6 -89.5t3.5 -85t14.5 -63t28 -23.5q14 1 29.5 22t30 52.5t25.5 69t16 70.5q1 4 5.5 6
t9 1.5t8 -5t2.5 -11.5q-16 -95 -50.5 -171t-90.5 -121q-27 -22 -60 -28t-63 11.5t-53.5 61t-30.5 119.5zM165 627q-18 -39 -42.5 -39.5t-43.5 25.5t-28.5 71.5t2.5 99.5q7 17 23.5 24.5t37.5 7t43 -6.5t39.5 -16t27 -21.5t6.5 -22.5q-15 -20 -23.5 -34.5t-14.5 -27.5
t-12 -27t-15 -33z" />
    <glyph glyph-name="j.002" unicode="&#xe036;" horiz-adv-x="287" 
d="M-7 143q1 11 1 34.5v50.5q-30 -54 -79 -67.5t-111 -4t-133 32.5t-144 42q-83 22 -138.5 14.5t-85.5 -31.5t-36.5 -58.5t8 -66t48.5 -54t86 -22.5q6 0 5.5 -5.5t-6.5 -5.5q-72 3 -115.5 33.5t-59 71.5t-4 84t51 71.5t106 33.5t160.5 -29q73 -27 143.5 -52.5t130.5 -33.5
t105.5 10t67.5 77q0 37 1 77.5t2.5 78t4 69t6.5 51.5q3 15 21 14.5t43 -10t52.5 -25.5t49 -31.5t32.5 -27.5t3 -13q-8 -9 -12 -27.5t-5.5 -43.5t-2 -55.5t-1.5 -63.5q-2 -33 -1 -78.5t0 -99.5q22 12 41.5 27.5t35.5 38t28.5 54.5t19.5 77q2 10 7 14.5t9.5 3.5t7.5 -8t1 -19
q-8 -51 -22.5 -87.5t-34 -63t-43.5 -45.5t-51 -34q-2 -51 -5.5 -103t-11.5 -101t-20.5 -92t-31.5 -75.5t-45.5 -51t-62.5 -18.5q-36 -6 -71.5 7t-62 39.5t-39.5 64.5t-3.5 82.5t46.5 93t110 96.5q1 33 2 72.5t2 87.5zM135 627q-18 -39 -42.5 -39.5t-43.5 25.5t-28.5 71.5
t2.5 99.5q7 17 23.5 24.5t37.5 7t43 -6.5t39.5 -16t27.5 -21.5t6 -22.5q-15 -20 -23.5 -34.5t-14.5 -27.5t-12 -27t-15 -33zM-21 -258q1 3 2 24q1 18 2.5 56t3.5 110q-57 -43 -80.5 -83.5t-26 -73.5t11.5 -55.5t32 -29.5t35 5t20 47z" />
    <glyph glyph-name="k.002" unicode="&#xe037;" horiz-adv-x="602" 
d="M-6 100v115q-32 -47 -81 -57.5t-109.5 -0.5t-129 32.5t-139.5 41.5q-83 22 -138.5 14.5t-85.5 -31.5t-36.5 -58.5t8 -66t49 -54t85.5 -22.5q6 0 5.5 -5.5t-6.5 -5.5q-72 3 -115.5 33.5t-59 71.5t-4 84t51 71.5t106 33.5t160.5 -29q70 -26 137.5 -50.5t126 -33.5t104 4
t71.5 62v105.5t1 116.5t2.5 117.5t3.5 109t5.5 90t7.5 61.5q3 15 21 14.5t43 -10t52.5 -25.5t49 -31.5t32.5 -27.5t3 -13q-7 -14 -11.5 -43.5t-7 -70t-3.5 -89t-1.5 -99.5t0 -102.5t0.5 -97.5q11 18 28 48t38.5 64t45 68.5t47.5 61.5t46.5 43.5t41.5 15.5q3 4 14.5 -9.5
t23 -32t19 -34.5t1.5 -16q-24 0 -48 -3t-49.5 -15.5t-52.5 -37t-58 -66.5q40 12 78.5 11t67.5 -10t45.5 -22t14.5 -25q-7 -35 -14 -76t-7 -75.5t11 -57t41 -20.5q14 1 29.5 20.5t29 49.5t24.5 67.5t17 74.5q3 10 8 13.5t9.5 2t7 -7.5t1.5 -15q-8 -39 -19 -79.5t-28 -78.5
t-40 -72.5t-54 -61.5q-27 -23 -59.5 -28.5t-63 11.5t-54 61t-30.5 120q-1 39 -4 71.5t-9 53.5t-15 26.5t-22 -9.5t-21 -27t-14 -22.5t-12 -19t-14 -16.5q1 -78 -4 -125t-9 -64q-7 -13 -23.5 -13t-37 7.5t-42.5 20t-40.5 27t-30.5 27.5t-12 20z" />
    <glyph glyph-name="l.002" unicode="&#xe038;" horiz-adv-x="307" 
d="M332 280q0 6 4.5 10t10 4t9 -5t1.5 -18q-6 -39 -17 -80t-28.5 -79t-41 -72t-54.5 -61q-27 -23 -59.5 -28.5t-62.5 11.5t-53.5 61t-31.5 120q-2 25 -3 45.5t-2 42.5q-20 -37 -48.5 -55t-64 -22.5t-77 2.5t-87 19t-94 27.5t-97.5 28.5q-83 22 -138.5 14.5t-85.5 -31.5
t-36.5 -58.5t8 -66t48.5 -54t86 -22.5q6 0 5.5 -5.5t-6.5 -5.5q-72 3 -115.5 33.5t-59 71.5t-4 84t51 71.5t106 33.5t160.5 -29q73 -27 144 -52.5t131 -33t105 10t67 77.5v12q0 13 0.5 51t1 90t2 112.5t3.5 119t5 110t7 85.5q2 16 20 15.5t42.5 -10.5t52.5 -26t49.5 -31.5
t33 -27.5t3.5 -13q-5 -5 -9 -36t-8 -76t-7.5 -98t-6 -102.5t-3.5 -89.5t-1 -58q0 -41 1 -82.5t5 -74.5t12.5 -53.5t24.5 -19.5q14 1 29.5 20.5t29.5 50.5t25 68.5t17 74.5z" />
    <glyph glyph-name="m.002" unicode="&#xe039;" horiz-adv-x="920" 
d="M823 448q-5 -24 -10.5 -61.5t-9.5 -80.5t-5.5 -86t2.5 -78t14.5 -56t30.5 -20q14 1 29.5 20.5t29 50t24.5 68t17 74.5q-1 5 3.5 7t10 1.5t9.5 -4.5t3 -12q-6 -37 -17 -77t-28 -78t-41 -73.5t-55 -63.5q-26 -23 -59 -29t-63.5 11.5t-54 61.5t-30.5 120q-1 39 0.5 84t0 84
t-9 65.5t-26.5 28.5q-11 1 -23 -16t-23.5 -44.5t-22 -62.5t-18.5 -69v-121.5t2 -100.5q0 -16 -16.5 -16t-41.5 8.5t-53 23.5t-50.5 29.5t-34.5 25.5t-4 12q-1 26 1 61t4 72t3.5 73.5t-0.5 65t-8.5 46.5t-19.5 19q-9 0 -21 -21t-24.5 -53.5t-24.5 -72t-21 -76.5
q1 -59 1 -107.5t-4 -69.5q-7 -13 -23.5 -13t-37 7.5t-42.5 20t-40.5 27t-30.5 27.5t-12 20q0 13 -0.5 48t-0.5 81q-20 -36 -48.5 -53.5t-64 -22t-77 2.5t-87 19t-93.5 27.5t-97 28.5q-83 22 -138.5 14.5t-85.5 -31.5t-36.5 -58.5t8 -66t49 -54t85.5 -22.5q6 0 5.5 -5.5
t-6.5 -5.5q-72 3 -115.5 33.5t-59 71.5t-4 84t51 71.5t106 33.5t160.5 -29q73 -27 144 -52.5t131 -33t105 10.5t67 78q0 36 1 73.5t3.5 73.5t6 68.5t8.5 57.5q3 15 21 14.5t43 -10t52.5 -25.5t49 -31.5t32.5 -27.5t3 -13q-13 -24 -19 -61.5t-9 -81.5q10 31 21 63t24 61.5
t27.5 54.5t31.5 43q21 23 44.5 28.5t46 0t43.5 -19t36.5 -29.5t25 -31t9.5 -23q0 -14 -0.5 -51t-0.5 -87q9 31 19.5 61.5t23.5 58.5t27.5 51.5t31.5 40.5q24 24 50.5 30.5t51.5 0.5t47 -20t38.5 -31t25 -34t6.5 -27z" />
    <glyph glyph-name="n.002" unicode="&#xe040;" horiz-adv-x="618" 
d="M522 448q-5 -24 -10.5 -61.5t-9.5 -80.5t-5.5 -86t2.5 -78t14.5 -56t30.5 -20q14 1 29.5 20.5t29 50t24.5 68t17 74.5q1 6 6.5 7.5t11 0t8.5 -6t0 -9.5q-7 -39 -18.5 -79.5t-28 -78.5t-40 -72.5t-54.5 -61.5q-27 -23 -59.5 -28.5t-63 11.5t-54 61t-30.5 120q-1 39 0.5 88
t0.5 91t-8.5 69t-26.5 23q-12 -3 -26 -29t-27.5 -63.5t-25.5 -81.5t-20 -83q1 -49 1 -88t-4 -58q-7 -13 -23.5 -13t-37 7.5t-42.5 20t-40.5 27t-30.5 27.5t-12 20q0 12 -0.5 45.5t-0.5 78.5q-30 -52 -79 -64.5t-110.5 -3t-132 32.5t-142.5 42q-83 22 -138.5 14.5
t-85.5 -31.5t-36.5 -58.5t8 -66t49 -54t85.5 -22.5q6 0 5.5 -5.5t-6.5 -5.5q-72 3 -115.5 33.5t-59 71.5t-4 84t51 71.5t106 33.5t160.5 -29q72 -27 141.5 -52t129 -33t105 8t68.5 72q0 36 1 75t3.5 76.5t6 70.5t8.5 59q3 15 21 14.5t43 -10t52.5 -25.5t49 -31.5t32.5 -27.5
t3 -13q-14 -28 -20.5 -73.5t-8.5 -97.5q9 34 20.5 70.5t25.5 70t30.5 62t36.5 47.5q24 24 50.5 30.5t51.5 0.5t47 -20t38.5 -31t25 -34t6.5 -27z" />
    <glyph glyph-name="o.002" unicode="&#xe041;" horiz-adv-x="549" 
d="M586 277q8 12 15 7.5t3 -18.5q-3 -9 -13 -24.5t-27.5 -30t-42.5 -25t-58 -11.5q-9 -61 -35.5 -102.5t-60.5 -67.5t-71 -37t-67 -11q-54 1 -96 24t-71.5 60.5t-47 87t-21.5 104.5q-19 -38 -47.5 -56.5t-64.5 -23t-77.5 2t-87.5 19t-94.5 28t-97.5 28.5q-83 22 -138.5 14.5
t-85.5 -31.5t-36.5 -58.5t8 -66t49 -54t85.5 -22.5q6 0 5.5 -5.5t-6.5 -5.5q-72 3 -115.5 33.5t-59 71.5t-4 84t51 71.5t106 33.5t160.5 -29q73 -27 144 -52.5t131 -33t105 10.5t67 78q-1 75 21 148.5t68 130.5q8 10 19.5 11.5t25 -4.5t27 -17t26.5 -24q33 38 88 38
q36 2 76.5 -15.5t72 -58t48 -107t3.5 -163.5q30 -1 62 13t58 55zM235 -4q27 2 41 51t20 147q-38 12 -66 32t-48 45q-4 -47 -3 -96t7 -89t18 -65.5t31 -24.5zM296 229q6 131 -6 195.5t-58 64.5q-15 0 -28 -8q14 -20 20 -36t-2 -21q-12 -8 -21 -36.5t-14 -68.5
q15 -28 41.5 -51.5t67.5 -38.5z" />
    <glyph glyph-name="p.002" unicode="&#xe042;" horiz-adv-x="623" 
d="M681 299q12 -2 17.5 -12t-7.5 -16q-43 1 -82.5 -4.5t-74.5 -14.5q-4 -66 -24 -127.5t-54.5 -103.5t-82.5 -57t-109 13q-35 16 -44.5 40.5t1 53.5t37.5 60t66 60q2 35 1.5 69t-5 61t-12.5 43t-20 16q-15 -1 -29 -17t-26 -43t-22 -62.5t-17 -75.5q-1 -59 -1.5 -122t0 -124
t1 -117.5t0.5 -101.5t-1 -76t-3 -41q-7 -13 -23.5 -13t-37 7.5t-42.5 20t-40.5 27t-30.5 27.5t-12 20v33.5t-0.5 66.5t-0.5 91.5t-0.5 109.5t-1 118.5t-0.5 119.5q-30 -54 -79 -67.5t-110.5 -4t-132.5 32.5t-144 42q-83 22 -138.5 14.5t-85.5 -31.5t-36.5 -58.5t8 -66
t49 -54t85.5 -22.5q6 0 5.5 -5.5t-6.5 -5.5q-72 3 -115.5 33.5t-59 71.5t-4 84t51 71.5t106 33.5t160.5 -29q73 -27 143 -52.5t130 -33t105 9.5t68 76q0 48 -0.5 92t-0.5 80.5v64.5v45q0 16 18.5 15t45.5 -11t58 -26.5t55.5 -32.5t38 -28t5.5 -13q-8 -15 -12.5 -46.5
t-8.5 -76.5q13 43 29.5 83t35.5 70t40.5 48.5t46.5 20.5q46 2 80.5 -19t57 -58t34 -85.5t11.5 -100.5q36 8 73 11.5t73 -1.5zM260 37q10 -13 19 -9.5t16.5 19t13.5 40.5t10 55q-38 -34 -53.5 -63t-5.5 -42z" />
    <glyph glyph-name="q.002" unicode="&#xe043;" 
d="M632 280q1 5 5 7t8.5 0.5t8 -5.5t2.5 -11q-6 -52 -21.5 -97t-37.5 -80.5t-49 -59.5t-57 -33v-5q55 -35 83 -77.5t35 -86.5t-3.5 -86t-32 -74.5t-51.5 -52t-62 -19.5q-28 0 -51.5 7.5t-42.5 28.5t-32.5 59t-21 98t-8 146t7.5 204q-11 -53 -41 -93.5t-77 -49.5
q-44 -9 -78 7t-58.5 48t-38.5 77t-18 95q-30 -53 -79 -66.5t-110.5 -4t-132 32.5t-143.5 42q-83 22 -138.5 14.5t-85.5 -31.5t-36.5 -58.5t8 -66t48.5 -54t86 -22.5q6 0 5.5 -5.5t-6.5 -5.5q-72 3 -115.5 33.5t-59 71.5t-4 84t51 71.5t106 33.5t160.5 -29q48 -18 95.5 -35.5
t91.5 -30.5t84 -19t73.5 -0.5t59 24.5t40.5 57q0 46 8.5 90.5t26.5 82.5t44.5 66t62 40t80.5 5.5t99 -37.5l6 34q3 15 21 14.5t43 -10t52.5 -25.5t49 -31.5t32.5 -27.5t3 -13q-8 -9 -14.5 -28t-11.5 -44.5t-8.5 -56t-4.5 -61.5q-1 -16 -1 -40.5v-54t0.5 -63.5t1.5 -68
q40 20 66 55t42 72t23.5 69.5t10.5 48.5zM223 91q16 -10 31.5 4t27.5 37t19 48t6 38q0 18 0.5 48.5t2 67t3.5 75.5t5 73q-37 6 -62 -18.5t-39.5 -65.5t-20 -91t-4 -95.5t9.5 -79t21 -41.5zM515 -230q20 -27 35.5 -15.5t17.5 44.5t-15 79t-61 87q2 -36 4 -69t5 -59t6.5 -43.5
t7.5 -23.5z" />
    <glyph glyph-name="r.002" unicode="&#xe044;" horiz-adv-x="451" 
d="M156 143q-1 13 -2.5 45.5t-1.5 75.5t1 91.5t5 94.5q-17 -15 -37 -17.5t-46 5.5q3 -91 -13.5 -147t-48.5 -85.5t-79 -36.5t-105 0t-126 24.5t-143 37.5q-83 22 -138.5 14.5t-85.5 -31.5t-36.5 -58.5t8 -66t49 -54t85.5 -22.5q6 0 5.5 -5.5t-6.5 -5.5q-72 3 -115.5 33.5
t-59 71.5t-4 84t51 71.5t106 33.5t160.5 -29q69 -26 133 -46.5t118 -29.5t97.5 -3t73 34.5t43 82.5t8.5 141q-17 8 -45 31t-50.5 60t-32 86.5t10.5 109.5q4 9 20 6t37 -13.5t43.5 -26t40.5 -31t27.5 -28t3.5 -18.5q-9 -9 -14.5 -31t-8.5 -47t-4 -46t-1 -28q26 -9 47 -5
t36 33q2 13 4 24l4 22q3 15 21 14.5t43 -10t52.5 -25.5t49 -31.5t32.5 -27.5t3 -13q-11 -13 -20 -47t-14 -77t-6 -89.5t3.5 -85t14.5 -63t28 -23.5q14 1 30 22.5t30 53.5t24.5 69t15.5 69q1 7 5.5 10t9.5 1.5t8.5 -6.5t1.5 -14q-9 -38 -20.5 -78t-27.5 -79t-38.5 -73.5
t-53.5 -61.5q-27 -23 -59.5 -28.5t-63 11.5t-54 61t-30.5 120z" />
    <glyph glyph-name="s.002" unicode="&#xe045;" horiz-adv-x="466" 
d="M238 481q-25 -10 -23.5 -27t18.5 -39.5t44 -49.5t54 -57.5t47.5 -64t24.5 -67.5q6 -59 -14 -103q35 32 62 82t39 125q2 10 7 14.5t9.5 3.5t7.5 -8t1 -19q-12 -75 -40 -133.5t-67 -99.5t-87 -63t-99 -23q-57 -2 -100.5 20.5t-74.5 58t-49 78.5t-24 83q-33 -39 -81.5 -44.5
t-107.5 7t-125.5 35.5t-135.5 41q-83 22 -138.5 14.5t-85.5 -31.5t-36.5 -58.5t8 -66t49 -54t85.5 -22.5q6 0 5.5 -5.5t-6.5 -5.5q-72 3 -115.5 33.5t-59 71.5t-4 84t51 71.5t106 33.5t160.5 -29q66 -24 131 -49t121.5 -37.5t102 -6t73.5 45.5q-1 24 4 43.5t15.5 31
t26.5 13.5t38 -8q17 -9 37 -29t37.5 -45.5t30 -52.5t16 -48.5t-5 -33.5t-33.5 -8q-26 4 -39 -7.5t-12.5 -27t15 -28t43.5 -10.5q24 2 41 15.5t24 36.5t3 54.5t-21 68.5q-16 35 -37 62t-42 50t-40 43t-30.5 41t-14 44.5t9.5 52.5q16 38 47.5 59.5t69.5 27t78.5 -3.5t74 -32.5
t55.5 -61t23 -87.5q0 -15 -11.5 -21t-25.5 -5t-26 8.5t-12 20.5q0 11 -4.5 30.5t-14 36.5t-23 27.5t-31.5 3.5z" />
    <glyph glyph-name="t.002" unicode="&#xe046;" horiz-adv-x="304" 
d="M-49 570q-4 2 -2.5 13.5t6 24t10 22.5t10.5 10l25 -4q0 13 0.5 31t1.5 36.5t1.5 36.5t1.5 31q1 16 19 15.5t43.5 -10.5t54 -26t51.5 -31.5t35 -27.5t4 -13q-2 -2 -3 -10.5t-2.5 -20t-2.5 -24t-2 -20.5q11 -2 22 -2.5t22 -1.5q5 0 8 -4.5t3.5 -10t-2 -10.5t-7.5 -6
q-21 -2 -51 0q-5 -42 -8 -95.5t-4.5 -109.5t-0.5 -109.5t6 -95.5t14 -67.5t24 -24.5q14 1 29.5 20.5t29.5 50.5t25.5 68.5t17.5 74.5q1 6 5.5 8.5t10 1.5t9 -6t1.5 -13q-9 -45 -21 -86t-28.5 -78t-39.5 -69t-54 -59q-27 -23 -58 -28.5t-60 12t-53 61t-36 119.5
q-3 17 -4.5 40t-3.5 52q-29 -58 -78.5 -73t-112 -6t-134.5 32t-146 43q-83 22 -138.5 14.5t-85.5 -31.5t-36.5 -58.5t8 -66t48.5 -54t86 -22.5q6 0 5.5 -5.5t-6.5 -5.5q-72 3 -115.5 33.5t-59 71.5t-4 84t51 71.5t106 33.5t160.5 -29q74 -27 145.5 -53t131.5 -33.5
t105.5 11.5t66.5 81q-2 58 -2 133t3 166z" />
    <glyph glyph-name="u.002" unicode="&#xe047;" 
d="M632 280q0 7 4.5 10t10 2t9 -6t1.5 -15q-8 -43 -19 -84t-27.5 -78.5t-39.5 -70t-54 -59.5q-27 -23 -59.5 -28.5t-62.5 11.5t-53.5 61t-31.5 120q-11 -53 -41 -93.5t-77 -49.5q-44 -9 -78 7t-58.5 48t-38.5 76.5t-17 94.5q-30 -53 -79.5 -66t-111 -3.5t-132 32.5
t-143.5 42q-83 22 -138.5 14.5t-85.5 -31.5t-36.5 -58.5t8 -66t49 -54t85.5 -22.5q6 0 5.5 -5.5t-6.5 -5.5q-72 3 -115.5 33.5t-59 71.5t-4 84t51 71.5t106 33.5t160.5 -29q72 -27 141.5 -52t129 -33t105 8t68.5 72v82.5t0.5 51.5t1 33.5t1.5 28.5t2.5 36t3.5 55
q0 10 16.5 9t40.5 -9.5t51 -22t50 -27t36.5 -25.5t10.5 -17q-6 -10 -9 -23t-5 -36t-3 -59t-3 -92q-2 -64 6.5 -100.5t24.5 -46.5t30.5 2.5t25.5 34t18 45.5t8 36q0 22 1 64t3 90t6 94.5t10 77.5q3 15 21 14.5t43 -10t52.5 -25.5t49 -31.5t32.5 -27.5t3 -13q-11 -13 -20 -47
t-14 -77t-6 -89.5t3.5 -85t14.5 -63t28 -23.5q14 1 29.5 20.5t29 50.5t24.5 68.5t17 74.5z" />
    <glyph glyph-name="v.002" unicode="&#xe048;" horiz-adv-x="576" 
d="M608 329q3 4 8 4t9 -1.5t6.5 -5t0.5 -7.5q-12 -26 -28.5 -49.5t-39 -41t-52 -25.5t-68.5 -3q-17 -53 -43 -97t-55 -76.5t-59 -51.5t-54 -20q-50 -3 -88.5 20t-67 62.5t-48.5 92t-33 109.5q-19 -40 -47 -59.5t-64 -25t-78 1t-88.5 19t-95.5 28t-99 28.5
q-83 22 -138.5 14.5t-85.5 -31.5t-36.5 -58.5t8 -66t49 -54t85.5 -22.5q6 0 5.5 -5.5t-6.5 -5.5q-72 3 -115.5 33.5t-59 71.5t-4 84t51 71.5t106 33.5t160.5 -29q73 -27 143 -52.5t130 -33.5t105 9.5t68 75.5q-9 39 -15 78t-10.5 74t-8.5 65.5t-7 53.5q-3 18 12.5 18.5
t40 -10t53 -28.5t52.5 -37t38.5 -35.5t11.5 -24.5q-6 -14 -5 -51t6 -84t13 -97.5t16.5 -92.5t17 -69t14.5 -26t14.5 22.5t18.5 55t19.5 74t15.5 79.5q-35 20 -56 57.5t-29 81.5t-3.5 90t21.5 83.5t46.5 61t70.5 23.5q56 0 94.5 -23.5t55 -72t10.5 -121.5t-39 -172
q15 -5 34 -4t39.5 10t40.5 29t36 55zM300 264q3 19 9 50t12 66t10.5 69.5t3.5 61.5t-9 42.5t-26 11.5q-25 -6 -42.5 -25.5t-27 -47t-10 -60.5t7.5 -64.5t26 -59t46 -44.5z" />
    <glyph glyph-name="w.002" unicode="&#xe049;" horiz-adv-x="873" 
d="M903 329q3 4 8 4t9 -1.5t6.5 -5t0.5 -7.5q-12 -26 -28.5 -49.5t-39 -41t-52 -25.5t-68.5 -3q-17 -53 -43 -97t-55 -76.5t-59 -51.5t-54 -20q-45 -3 -80 15.5t-62 51t-47 76.5t-35 94q-6 -41 -14 -76.5t-18.5 -61t-23.5 -40t-29 -14.5q-47 0 -81 20t-58.5 53.5t-40 77.5
t-25.5 93q-27 -62 -76.5 -79.5t-112.5 -9t-136 32t-149 43.5q-83 22 -138.5 14.5t-85.5 -31.5t-36.5 -58.5t8 -66t48.5 -54t86 -22.5q6 0 5.5 -5.5t-6.5 -5.5q-72 3 -115.5 33.5t-59 71.5t-4 84t51 71.5t106 33.5t160.5 -29q49 -18 97.5 -36t93.5 -31.5t85.5 -19t74 1.5
t58.5 28.5t39 63.5q-6 38 -10 76t-7 74t-5.5 67.5t-5.5 55.5q-3 18 12 17.5t38.5 -12t51 -31t50.5 -39.5t37 -37.5t11 -24.5q-6 -14 -7 -48t2 -76.5t9 -88t14 -80.5t17 -54.5t17 -11.5q1 1 7 24t13 58.5t13.5 80t9.5 90.5q-12 66 -19 125t-12 98q-3 18 12.5 18.5t40 -10
t53 -28.5t52.5 -37t38.5 -35.5t11.5 -24.5q-6 -14 -5 -51t6 -84t13 -97.5t16.5 -92.5t17 -69t14.5 -26t14.5 22.5t18.5 55t19.5 74t15.5 79.5q-35 20 -56 57.5t-29 81.5t-3.5 90t21.5 83.5t46.5 61t70.5 23.5q56 0 94.5 -23.5t55 -72t10.5 -121.5t-39 -172q15 -5 34 -4
t39.5 10t40.5 29t36 55zM595 264q3 19 9 50t12 66t10.5 69.5t3.5 61.5t-9 42.5t-26 11.5q-25 -6 -42.5 -25.5t-27 -47t-10 -60.5t7.5 -64.5t26 -59t46 -44.5z" />
    <glyph glyph-name="x.002" unicode="&#xe050;" horiz-adv-x="519" 
d="M425 549q4 2 13 -7t17 -21.5t13.5 -24.5t2.5 -15q-12 -3 -29.5 -18t-39.5 -38.5t-47 -54t-51 -65.5q13 -42 31 -85.5t37 -78t38.5 -55.5t36.5 -20q29 2 56 57t44 156q1 6 5.5 7.5t9.5 0t8.5 -6t2.5 -9.5q-8 -44 -19 -91t-27.5 -88t-39.5 -71.5t-55 -41.5
q-39 -14 -73.5 -7.5t-65.5 28t-57.5 56.5t-49.5 78q-23 -36 -43 -70.5t-35 -63.5q-4 -2 -10.5 -4t-12.5 -2t-9.5 1t-1.5 5q13 30 38 73.5t57 94.5q-30 63 -52.5 133t-39.5 136q2 -92 -14.5 -148.5t-48.5 -86t-79 -36t-105 1t-125.5 25.5l-142.5 38q-83 22 -138.5 14.5
t-85.5 -31.5t-36.5 -58.5t8 -66t49 -54t85.5 -22.5q6 0 5.5 -5.5t-6.5 -5.5q-72 3 -115.5 33.5t-59 71.5t-4 84t51 71.5t106 33.5t160.5 -29q91 -34 165 -54.5t130.5 -23t94.5 15t58.5 61t23 114t-13.5 173.5v1q-3 15 14 16.5t44.5 -6.5t59 -22.5t57 -29.5t40 -28.5
t6.5 -19.5q-1 -8 2 -20t7.5 -27t9.5 -31t9 -32q23 34 44 64.5t39 56t31.5 44.5t21.5 30z" />
    <glyph glyph-name="y.002" unicode="&#xe051;" horiz-adv-x="593" 
d="M209 87q13 -8 25.5 -1t24.5 22.5t21.5 36.5t16.5 41v86.5t1.5 102t4.5 97.5t9 72q3 15 21 14.5t43 -10t52.5 -25.5t49 -31.5t32.5 -27.5t3 -13q-8 -9 -12 -27.5t-5.5 -43.5t-2 -55.5t-1.5 -63.5q-1 -32 -0.5 -75.5t-0.5 -94.5q43 29 78 73.5t50 115.5q1 5 6 7.5t10 1.5
t8.5 -5t1.5 -13q-9 -45 -24 -79t-35.5 -61t-44.5 -47.5t-51 -37.5q-2 -51 -5.5 -103.5t-11 -102t-20 -93.5t-32 -76.5t-46 -51.5t-62.5 -19q-36 -6 -71.5 7t-62.5 39.5t-40 64.5t-3.5 83t46.5 93.5t110 96.5l4 126q-20 -41 -50 -71.5t-68 -38.5q-43 -8 -77 7t-58 46
t-38.5 74.5t-18.5 92.5q-21 -33 -49.5 -48.5t-64 -18.5t-76.5 4t-85.5 19.5t-91.5 27t-95 27.5q-83 22 -138.5 14.5t-85.5 -31.5t-36.5 -58.5t8 -66t49 -54t85.5 -22.5q6 0 5.5 -5.5t-6.5 -5.5q-72 3 -115.5 33.5t-59 71.5t-4 84t51 71.5t106 33.5t160.5 -29
q47 -17 93.5 -34.5t89.5 -30.5t82.5 -19.5t73 -2t59 21.5t42.5 51v9v82.5t0.5 52t1 34t1.5 28t2.5 35.5t3.5 55q0 10 16.5 9t40.5 -9.5t51 -22t50 -27t36.5 -25.5t10.5 -17q-6 -10 -9 -23t-5 -36t-3 -59t-3 -92q-2 -64 6.5 -107t24.5 -53zM283 -258q1 6 2 29q1 19 2.5 57
t3.5 104q-57 -43 -81 -83.5t-26 -73.5t11.5 -55.5t32 -29.5t35 5t20.5 47z" />
    <glyph glyph-name="z.002" unicode="&#xe052;" horiz-adv-x="614" 
d="M272 164q16 16 46.5 21t64.5 -7.5t66 -45.5t52 -93q31 23 54.5 51t40.5 58.5t27 62.5t14 63q1 5 6 9t10.5 4.5t9.5 -2.5t3 -12q-5 -32 -14.5 -67.5t-27 -71.5t-45.5 -70t-68 -63l6 -29q6 -44 -0.5 -93.5t-25 -96.5t-50 -88t-74 -68t-96.5 -35.5t-118 9.5q-55 15 -74 55
t1 91.5t80 107.5t163 103q-2 34 -12 61.5t-29.5 41.5t-49 11t-70.5 -28q-4 -4 -19 9t-29 34t-22.5 44.5t0.5 41.5q11 22 18.5 35.5t15 26t17.5 29t26 44t39.5 70t58.5 108.5q-30 -19 -62 -24.5t-57.5 -5.5t-42.5 2t-17 -2q-12 -95 -31.5 -155t-48.5 -92.5t-69 -41.5t-94 -2
t-123 25.5t-155 41.5q-83 22 -138.5 14.5t-85.5 -31.5t-36.5 -58.5t8 -66t48.5 -54t86 -22.5q6 0 5.5 -5.5t-6.5 -5.5q-71 3 -115 33.5t-59.5 71.5t-4 84t51 71.5t106 33.5t160.5 -29q93 -34 164 -55t122.5 -24t85.5 14.5t55 60t30 112t10 171.5q3 11 15.5 9.5t31.5 -8
t43.5 -15t53 -11.5t60 2t63.5 26q7 6 26.5 4t44.5 -8.5t51 -16t46.5 -19t31.5 -17.5t5 -11q-33 -17 -71.5 -55t-74.5 -84t-65 -94t-43 -84zM166 -341q30 -5 57 16.5t47.5 58t34 82.5t17.5 91q-71 -39 -118 -80.5t-68 -76.5t-14 -60t44 -31z" />
    <glyph glyph-name="divide" unicode="&#xf7;" horiz-adv-x="283" 
d="M266 310q9 2 12.5 -7.5t1 -22t-10 -23.5t-19.5 -11q-23 -1 -50.5 -1t-56 0.5t-56.5 1.5t-53 2q-12 0 -17 10t-3.5 22t8.5 22t21 11q43 -2 104 -2t119 -2zM161 37q-18 -39 -42.5 -39.5t-43.5 25.5t-28.5 71.5t2.5 99.5q7 17 23.5 24.5t37.5 7t43 -6.5t39.5 -16t27 -21.5
t6.5 -22.5q-15 -20 -23.5 -34.5t-14.5 -27.5t-12 -27t-15 -33zM169 383q-18 -39 -42.5 -39.5t-43.5 25.5t-28.5 71.5t2.5 99.5q7 17 23.5 24.5t37.5 7t43 -6.5t39.5 -16t27 -21.5t6.5 -22.5q-15 -20 -23.5 -34.5t-14.5 -27.5t-12 -27t-15 -33z" />
    <glyph glyph-name="ellipsis" unicode="&#x2026;" horiz-adv-x="687" 
d="M140 37q-18 -39 -42.5 -39.5t-43.5 25.5t-28.5 71.5t2.5 99.5q7 17 23.5 24.5t37.5 7t43 -6.5t39.5 -16t27 -21.5t6.5 -22.5q-15 -20 -23.5 -34.5t-14.5 -27.5t-12 -27t-15 -33zM369 37q-18 -39 -42.5 -39.5t-43.5 25.5t-28.5 71.5t2.5 99.5q7 17 23.5 24.5t37.5 7
t43 -6.5t39.5 -16t27 -21.5t6.5 -22.5q-15 -20 -23.5 -34.5t-14.5 -27.5t-12 -27t-15 -33zM598 37q-18 -39 -42.5 -39.5t-43.5 25.5t-28.5 71.5t2.5 99.5q7 17 23.5 24.5t37.5 7t43 -6.5t39.5 -16t27 -21.5t6.5 -22.5q-15 -20 -23.5 -34.5t-14.5 -27.5t-12 -27t-15 -33z" />
    <glyph glyph-name="dieresis" unicode="&#xa8;" horiz-adv-x="455" 
d="M138 623q-18 -39 -42.5 -39.5t-43.5 25.5t-28.5 71.5t2.5 99.5q7 17 23.5 24.5t37.5 7t43 -6.5t39.5 -16t27 -21.5t6.5 -22.5q-15 -20 -23.5 -34.5t-14.5 -27.5t-12 -27t-15 -33zM367 623q-18 -39 -42.5 -39.5t-43.5 25.5t-28.5 71.5t2.5 99.5q7 17 23.5 24.5t37.5 7
t43 -6.5t39.5 -16t27 -21.5t6.5 -22.5q-15 -20 -23.5 -34.5t-14.5 -27.5t-12 -27t-15 -33z" />
    <glyph glyph-name="a.003" unicode="&#xe053;" horiz-adv-x="595" 
d="M621 280q2 7 7 10.5t9.5 2.5t7.5 -6.5t1 -15.5q-6 -32 -16.5 -71.5t-26.5 -79.5t-40 -77t-57 -64q-27 -22 -59.5 -27.5t-62.5 11.5t-53.5 60.5t-31.5 119.5q-11 -53 -41 -93.5t-77 -49.5q-54 -11 -93 15t-63 73t-33 108t-2 122t30 114.5t62.5 84.5t96 33t129.5 -40l6 34
q3 15 21 14.5t43 -10t52.5 -25.5t49 -31.5t32.5 -27.5t3 -13q-11 -13 -20 -47t-14 -77t-6 -89.5t3.5 -85t14.5 -63t28 -23.5q14 1 29 20.5t28.5 50.5t25 68.5t17.5 74.5zM212 71q16 -10 29 3.5t23.5 38t17.5 54t12 51.5q0 17 0.5 47.5t2 67t3.5 75.5t5 73q-28 4 -48.5 -10.5
t-35.5 -41t-24 -61.5t-13 -73t-3.5 -75.5t4.5 -68.5t11 -52.5t16 -27.5zM12 310q0 8 -3 8t-6.5 -4.5t-7 -11.5t-3.5 -12q-4 -57 -13.5 -85.5t-22 -35t-25.5 4.5t-23.5 32.5t-17.5 50t-6 57.5q0 8 -6 7.5t-13 -5.5t-11.5 -11.5t-1.5 -10.5q11 -55 2.5 -83t-32.5 -37t-61.5 -2
t-82.5 22.5t-96 36.5t-102 40q-94 34 -160.5 29t-106 -33.5t-51 -71.5t4 -84t59.5 -71.5t115 -33.5q6 0 6.5 5.5t-5.5 5.5q-52 0 -86 22.5t-48.5 54t-8 66t36.5 58.5t85.5 31.5t138.5 -14.5q45 -12 92 -26.5t92 -27.5t85.5 -21.5t73.5 -8t55.5 12.5t31.5 40q7 -34 27 -50.5
t41 -7.5t37.5 48t16.5 116z" />
    <glyph glyph-name="b.003" unicode="&#xe054;" horiz-adv-x="611" 
d="M647 306q18 0 24.5 -5.5t5 -12t-8.5 -11.5t-16 -5q-38 -2 -72.5 -8t-66.5 -16q-6 -45 -18.5 -88.5t-31 -80.5t-42.5 -65.5t-51.5 -43.5t-59 -14.5t-64.5 21.5q-31 19 -38.5 43.5t2.5 51.5t35.5 55.5t60.5 54.5q6 48 7.5 99.5t-2.5 94.5t-15.5 71t-30.5 29
q-23 1 -41 -12.5t-33 -36.5q-1 -69 -1 -137.5v-126t-0.5 -98.5t-3.5 -54q-7 -13 -23.5 -13t-37 7.5t-42.5 20t-40.5 27t-30.5 27.5t-12 20v75q-12 -21 -26.5 -28t-28.5 -2t-25.5 20.5t-16.5 38.5q-9 -28 -31.5 -40t-55.5 -12.5t-73.5 8t-85.5 21.5t-92 27.5t-92 26.5
q-83 22 -138.5 14.5t-85.5 -31.5t-36.5 -58.5t8 -66t49 -54t85.5 -22.5q6 0 5.5 -5.5t-6.5 -5.5q-72 3 -115.5 33.5t-59 71.5t-4 84t51 71.5t106 33.5t160.5 -29q51 -19 102 -40t96 -36.5t82.5 -22.5t61.5 2t32.5 37t-2.5 83q-3 4 1.5 10.5t11.5 11.5t13 5.5t6 -7.5
q-1 -26 4.5 -52.5t15 -48t21.5 -34.5t23.5 -12.5t22 18t16.5 56.5v611q0 16 18.5 15t45.5 -11t58 -26.5t55.5 -32.5t38 -28t5.5 -13q-7 -14 -12 -40t-8.5 -61.5t-5.5 -77.5t-3 -88q23 26 52 44t67 23q60 8 100.5 -12t65.5 -58.5t34 -90.5t6 -109q69 20 130 20zM242 37
q8 -11 15.5 -8.5t14.5 15.5t13.5 34.5t11.5 48.5q-33 -31 -47.5 -56t-7.5 -34z" />
    <glyph glyph-name="c.003" unicode="&#xe055;" horiz-adv-x="448" 
d="M306 371q-24 -28 -37 -32.5t-18.5 4t-4 25.5t7 32.5t14 25t17.5 2.5q4 -8 13.5 -2.5t16 16t7 23t-13.5 18.5q-25 11 -47.5 -12t-39 -65.5t-25.5 -98t-7 -109t16.5 -97.5t45.5 -64q22 -15 54.5 -11.5t64.5 30.5t60 80t42 138q1 10 6 14t10 3t8 -6.5t2 -15.5
q-22 -152 -94.5 -233t-198.5 -79q-51 1 -88.5 18t-63.5 46t-41 67t-20 80q-12 -18 -26 -22.5t-27.5 1t-24 20.5t-15.5 37q-9 -28 -31.5 -40t-55.5 -12.5t-73.5 8t-85.5 21.5t-92 27.5t-92 26.5q-83 22 -138.5 14.5t-85.5 -31.5t-36.5 -58.5t8 -66t49 -54t85.5 -22.5
q6 0 5.5 -5.5t-6.5 -5.5q-72 3 -115.5 33.5t-59 71.5t-4 84t51 71.5t106 33.5t160.5 -29q51 -19 102 -40t96 -36.5t82.5 -22.5t61.5 2t33 37t-3 83q-3 4 1.5 10.5t11.5 11.5t13 5.5t6 -7.5q-1 -36 10 -72t26 -56t32 -18t28 42q-1 46 8.5 93t27 88.5t42.5 75.5t56.5 55
t68.5 25.5t78 -11.5q26 -11 47 -26t35 -26q15 -12 13.5 -27t-11.5 -30.5t-24 -30t-24 -25.5z" />
    <glyph glyph-name="d.003" unicode="&#xe056;" horiz-adv-x="609" 
d="M634 280q1 7 6 11t10 3t8.5 -6.5t1.5 -16.5q-11 -53 -23 -95.5t-27.5 -77t-37.5 -63.5t-53 -56q-27 -23 -59.5 -28.5t-62.5 11.5t-53.5 61t-31.5 120q-11 -53 -41 -93.5t-77 -49.5q-39 -8 -70.5 4t-54.5 37.5t-39 62.5t-23 80q-11 -25 -26 -34t-30 -5.5t-27 19.5t-18 40
q-9 -28 -31.5 -40t-55.5 -12.5t-73.5 8t-85.5 21.5t-92 27.5t-92 26.5q-83 22 -138.5 14.5t-85.5 -31.5t-36.5 -58.5t8 -66t49 -54t85.5 -22.5q6 0 5.5 -5.5t-6.5 -5.5q-72 3 -115.5 33.5t-59 71.5t-4 84t51 71.5t106 33.5t160.5 -29q51 -19 102 -40t96 -36.5t82.5 -22.5
t61.5 2t32.5 37t-2.5 83q-3 4 1.5 10.5t11.5 11.5t13 5.5t6 -7.5q-1 -39 11 -76.5t29 -57t34 -10.5t27 63q-3 47 3.5 94.5t22.5 88.5t41.5 73t61 47.5t81 12t100.5 -33.5q1 53 2.5 105t3.5 96t5 77.5t6 49.5q3 15 21 14.5t43 -10t52.5 -25.5t49 -31.5t32.5 -27.5t3 -13
q-6 -7 -10.5 -40.5t-8.5 -82t-7.5 -106t-6 -111t-4 -97.5t-2.5 -66q-1 -35 0.5 -68t7 -58.5t14 -40.5t22.5 -14t29.5 20.5t29 50.5t24.5 68.5t17 74.5zM225 71q16 -10 29 3.5t23.5 38t17.5 54t12 51.5v35t0.5 60.5t1 78.5t1.5 90q-35 1 -58.5 -26.5t-37 -71t-18 -95
t-2.5 -97.5t10.5 -80t20.5 -41z" />
    <glyph glyph-name="e.003" unicode="&#xe057;" horiz-adv-x="447" 
d="M332 356q-11 -16 -26 -38t-31.5 -46t-34.5 -49t-35 -47q4 -52 17 -90.5t37 -48.5q33 -14 65.5 -1.5t61 46t51 84t35.5 113.5q2 10 6.5 11t8.5 -3t7 -11t2 -12q-8 -56 -29.5 -111.5t-57 -99t-84.5 -70.5t-112 -26q-51 1 -88.5 18t-63.5 46t-41 67t-20 80
q-12 -18 -26 -22.5t-27.5 1t-24 20.5t-15.5 37q-9 -28 -31.5 -40t-55.5 -12.5t-73.5 8t-85.5 21.5t-92 27.5t-92 26.5q-83 22 -138.5 14.5t-85.5 -31.5t-36.5 -58.5t8 -66t48.5 -54t86 -22.5q6 0 5.5 -5.5t-6.5 -5.5q-72 3 -115.5 33.5t-59 71.5t-4 84t51 71.5t106 33.5
t160.5 -29q51 -19 102 -40t96 -36.5t82.5 -22.5t61.5 2t33 37t-3 83q-3 4 1.5 10.5t11.5 11.5t13 5.5t6 -7.5q-1 -36 10 -72t26 -56t32 -18t28 42q-1 46 8.5 93t27 88.5t42.5 75.5t56.5 55t68.5 25.5t78 -11.5q26 -11 46.5 -26t35.5 -26q14 -14 14.5 -30.5t-6.5 -34t-18 -34
t-18 -29.5zM316 483q-26 3 -46.5 -19.5t-34.5 -59t-22 -83.5t-9 -94q22 34 45.5 72.5t41 74t25.5 64.5t0 45z" />
    <glyph glyph-name="f.003" unicode="&#xe058;" horiz-adv-x="338" 
d="M390 319q3 6 5 2t2.5 -11t-0.5 -14t-4 -7q-27 -2 -46.5 -3t-39 -1.5t-43.5 -0.5h-58q41 -31 66 -77t37.5 -99.5t13.5 -112t-7 -115t-23.5 -107.5t-35.5 -89.5t-43.5 -61t-47.5 -22.5q-42 0 -70.5 20t-46.5 79.5t-28 168t-14 285.5q0 3 -0.5 7t-0.5 9q-12 -18 -26 -23.5
t-27.5 0.5t-24 21t-15.5 37q-9 -28 -31.5 -40t-55.5 -12.5t-73.5 8t-85.5 21.5t-92 27.5t-92 26.5q-83 22 -138.5 14.5t-85.5 -31.5t-36.5 -58.5t8 -66t49 -54t85.5 -22.5q6 0 5.5 -5.5t-6.5 -5.5q-72 3 -115.5 33.5t-59 71.5t-4 84t51 71.5t106 33.5t160.5 -29
q51 -19 102 -40t96 -36.5t82.5 -22.5t61.5 2t33 37t-3 83q-3 4 1.5 10.5t11.5 11.5t13 5.5t6 -7.5q-1 -25 4.5 -50.5t14.5 -46.5t20 -35t22.5 -15.5t21.5 12t17 46.5q1 42 2.5 97.5t4 115.5t5 121t5.5 115.5t5.5 99t5.5 70.5q1 16 19 15.5t43 -10.5t52.5 -26t49.5 -31.5
t33.5 -27.5t3.5 -13q-5 -5 -9 -30t-7.5 -61.5t-7 -81.5t-6.5 -91.5t-5 -90t-4 -77.5q26 0 54 -0.5t54 -1t48.5 -0.5t36.5 2zM221 -230q11 -5 24 16.5t22.5 60.5t13.5 90.5t-3 106t-26.5 107t-57.5 93.5q-1 -30 -1.5 -75.5t-0.5 -97t1.5 -103.5t4.5 -95t8.5 -71t14.5 -32z
" />
    <glyph glyph-name="g.003" unicode="&#xe059;" horiz-adv-x="575" 
d="M599 280q3 7 8 9.5t9.5 1t7 -7t1.5 -12.5q-15 -81 -51.5 -133t-87.5 -89q-1 -77 -8 -156.5t-26 -144.5t-52 -106.5t-87 -41.5q-36 -6 -71.5 7t-62.5 39.5t-40 64.5t-3.5 82.5t46.5 93t110 96.5q2 33 2.5 72.5t2.5 87.5q-11 -53 -41 -93.5t-77 -49.5q-39 -8 -70.5 4
t-55 38t-39 63t-22.5 80q-12 -26 -27 -35.5t-30 -5.5t-27 20t-18 40q-9 -28 -31.5 -40t-55.5 -12.5t-73.5 8t-85.5 21.5t-92 27.5t-92 26.5q-83 22 -138.5 14.5t-85.5 -31.5t-36.5 -58.5t8 -66t48.5 -54t86 -22.5q6 0 5.5 -5.5t-6.5 -5.5q-72 3 -115.5 33.5t-59 71.5t-4 84
t51 71.5t106 33.5t160.5 -29q51 -19 102 -40t96 -36.5t82.5 -22.5t61.5 2t33 37t-3 83q-3 4 1.5 10.5t11.5 11.5t13 5.5t6 -7.5q-1 -26 5 -52t15 -47.5t20.5 -34.5t23 -13.5t22 15.5t16.5 53q-3 47 4 95t23.5 89.5t43 73t63 46t83 9.5t103.5 -38q1 9 2.5 17.5t3.5 16.5
q3 15 21 14.5t43 -10t52.5 -25.5t49 -31.5t32.5 -27.5t3 -13q-16 -18 -21 -65t-6 -116q-1 -32 0 -78t1 -100q40 30 69.5 74t42.5 114zM214 94q16 -10 28 3t21 37t15.5 53t11.5 51q0 17 1 45.5t2 61.5t3.5 69t5.5 68q-37 6 -61 -18.5t-38 -65t-18.5 -90t-2 -95t10.5 -78.5
t21 -41zM283 -258q1 3 2 24q1 18 2.5 56t3.5 110q-57 -43 -81 -83.5t-26 -73.5t11.5 -55.5t32 -29.5t35 5t20.5 47z" />
    <glyph glyph-name="h.003" unicode="&#xe060;" horiz-adv-x="618" 
d="M523 448q-5 -24 -10.5 -61.5t-9.5 -80.5t-5.5 -86t2.5 -78t14.5 -56t30.5 -20q14 1 29 20t28.5 49t24.5 68t17 76q1 3 6 5.5t10 2.5t8.5 -3.5t1.5 -12.5q-17 -92 -47.5 -165.5t-92.5 -126.5q-27 -23 -59.5 -28.5t-63 11.5t-54 61t-30.5 120q-1 39 0.5 92t0.5 100.5
t-8.5 79t-26.5 27.5q-13 -3 -27 -29.5t-27.5 -65t-25 -82.5t-18.5 -82q0 -65 -0.5 -111.5t-3.5 -60.5q-7 -13 -23.5 -13t-37 7.5t-42.5 20t-40.5 27t-30.5 27.5t-12 20q0 6 -0.5 25t-0.5 47q-12 -20 -26 -26t-27.5 -0.5t-25 20.5t-16.5 38q-9 -28 -31.5 -40t-55.5 -12.5
t-73.5 8t-85.5 21.5t-92 27.5t-92 26.5q-83 22 -138.5 14.5t-85.5 -31.5t-36.5 -58.5t8 -66t49 -54t85.5 -22.5q6 0 5.5 -5.5t-6.5 -5.5q-72 3 -115.5 33.5t-59 71.5t-4 84t51 71.5t106 33.5t160.5 -29q51 -19 102 -40t96 -36.5t82.5 -22.5t61.5 2t32.5 37t-2.5 83
q-3 4 1.5 10.5t11.5 11.5t13 5.5t6 -7.5q-1 -39 11 -76.5t29 -56.5t34 -11t27 62v105t1 119t2.5 122t3.5 113.5t5.5 93.5t8.5 64q3 15 21 14.5t43 -10t52.5 -25.5t49 -31.5t32.5 -27.5t3 -13q-11 -21 -17.5 -71.5t-9.5 -117t-3.5 -142t-0.5 -147.5q9 34 20.5 70.5t25.5 70.5
t30.5 62.5t36.5 47.5q24 24 50.5 30.5t51.5 0.5t47 -20t38.5 -31t25 -34t6.5 -27z" />
    <glyph glyph-name="i.003" unicode="&#xe061;" horiz-adv-x="301" 
d="M4 143q-1 5 -1.5 14t-0.5 20q-12 -22 -26.5 -29.5t-29 -2.5t-26 20.5t-16.5 38.5q-9 -28 -31.5 -40t-55.5 -12.5t-73.5 8t-85.5 21.5t-92 27.5t-92 26.5q-83 22 -138.5 14.5t-85.5 -31.5t-36.5 -58.5t8 -66t49 -54t85.5 -22.5q6 0 5.5 -5.5t-6.5 -5.5q-72 3 -115.5 33.5
t-59 71.5t-4 84t51 71.5t106 33.5t160.5 -29q51 -19 102 -40t96 -36.5t82.5 -22.5t61.5 2t33 37t-3 83q-3 4 1.5 10.5t11.5 11.5t13 5.5t6 -7.5q-1 -26 5 -52.5t15 -47.5t20.5 -34t23.5 -13t22 16.5t16 54.5q0 34 0.5 75t2.5 82t6 79.5t10 69.5q3 15 21 14.5t43 -10
t52.5 -25.5t49 -31.5t32.5 -27.5t3 -13q-11 -13 -20 -47t-14 -77t-6 -89.5t3.5 -85t14.5 -63t28 -23.5q14 1 29.5 22t30 52.5t25.5 69t16 70.5q1 4 5.5 6t9 1.5t8 -5t2.5 -11.5q-16 -95 -50.5 -171t-90.5 -121q-27 -22 -60 -28t-63 11.5t-53.5 61t-30.5 119.5zM165 627
q-18 -39 -42.5 -39.5t-43.5 25.5t-28.5 71.5t2.5 99.5q7 17 23.5 24.5t37.5 7t43 -6.5t39.5 -16t27 -21.5t6.5 -22.5q-15 -20 -23.5 -34.5t-14.5 -27.5t-12 -27t-15 -33z" />
    <glyph glyph-name="j.003" unicode="&#xe062;" horiz-adv-x="287" 
d="M-7 143q0 4 0.5 10.5t0.5 13.5q-12 -17 -26 -22t-27.5 1t-24 21t-15.5 37q-9 -28 -31.5 -40t-55.5 -12.5t-73.5 8t-85.5 21.5t-92 27.5t-92 26.5q-83 22 -138.5 14.5t-85.5 -31.5t-36.5 -58.5t8 -66t49 -54t85.5 -22.5q6 0 5.5 -5.5t-6.5 -5.5q-72 3 -115.5 33.5
t-59 71.5t-4 84t51 71.5t106 33.5t160.5 -29q51 -19 102 -40t96 -36.5t82.5 -22.5t61.5 2t32.5 37t-2.5 83q-3 4 1.5 10.5t11.5 11.5t13 5.5t6 -7.5q-1 -37 10.5 -73.5t27.5 -56.5t33 -15.5t28 50.5q0 38 0.5 84.5t2 92t4 85t7.5 63.5q3 15 21 14.5t43 -10t52.5 -25.5
t49 -31.5t32.5 -27.5t3 -13q-8 -9 -12 -27.5t-5.5 -43.5t-2 -55.5t-1.5 -63.5q-2 -33 -1 -78.5t0 -99.5q22 12 41.5 27.5t35.5 38t28.5 54.5t19.5 77q2 10 7 14.5t9.5 3.5t7.5 -8t1 -19q-8 -51 -22.5 -87.5t-34 -63t-43.5 -45.5t-51 -34q-2 -51 -5.5 -103t-11.5 -101
t-20.5 -92t-31.5 -75.5t-45.5 -51t-62.5 -18.5q-36 -6 -71.5 7t-62 39.5t-39.5 64.5t-3.5 82.5t46.5 93t110 96.5q1 33 2 72.5t2 87.5zM135 627q-18 -39 -42.5 -39.5t-43.5 25.5t-28.5 71.5t2.5 99.5q7 17 23.5 24.5t37.5 7t43 -6.5t39.5 -16t27.5 -21.5t6 -22.5
q-15 -20 -23.5 -34.5t-14.5 -27.5t-12 -27t-15 -33zM-21 -258q1 3 2 24q1 18 2.5 56t3.5 110q-57 -43 -80.5 -83.5t-26 -73.5t11.5 -55.5t32 -29.5t35 5t20 47z" />
    <glyph glyph-name="k.003" unicode="&#xe063;" horiz-adv-x="611" 
d="M3 100q0 6 -0.5 25t-0.5 47q-12 -20 -26 -26t-27.5 -0.5t-25 20.5t-16.5 38q-9 -28 -31.5 -40t-55.5 -12.5t-73.5 8t-85.5 21.5t-92 27.5t-92 26.5q-83 22 -138.5 14.5t-85.5 -31.5t-36.5 -58.5t8 -66t48.5 -54t86 -22.5q6 0 5.5 -5.5t-6.5 -5.5q-72 3 -115.5 33.5
t-59 71.5t-4 84t51 71.5t106 33.5t160.5 -29q51 -19 102 -40t96 -36.5t82.5 -22.5t61.5 2t33 37t-3 83q-3 4 1.5 10.5t11.5 11.5t13 5.5t6 -7.5q-1 -39 11 -76.5t29 -56.5t34 -11t27 62v105t1 119t2.5 122t3.5 113.5t5.5 93.5t8.5 64q3 15 21 14.5t43 -10t52.5 -25.5
t49 -31.5t32.5 -27.5t3 -13q-7 -14 -11.5 -43.5t-7 -70t-3.5 -89t-1.5 -99.5t0 -102.5t0.5 -97.5q11 18 28 48t38.5 64t45 68.5t47.5 61.5t46.5 43.5t41.5 15.5q3 4 14.5 -9.5t23 -32t19 -34.5t1.5 -16q-24 0 -48 -3t-49.5 -15.5t-52.5 -37t-58 -66.5q40 12 78.5 11
t67.5 -10t45.5 -22t14.5 -25q-7 -35 -14 -76t-7 -75.5t11 -57t41 -20.5q14 1 29.5 20.5t29 49.5t24.5 67.5t17 74.5q3 10 8 13.5t9.5 2t7 -7.5t1.5 -15q-8 -39 -19 -79.5t-28 -78.5t-40 -72.5t-54 -61.5q-27 -23 -59.5 -28.5t-63 11.5t-54 61t-30.5 120q-1 39 -4 71.5
t-9 53.5t-15 26.5t-22 -9.5t-21 -27t-14 -22.5t-12 -19t-14 -16.5q1 -78 -4 -125t-9 -64q-7 -13 -23.5 -13t-37 7.5t-42.5 20t-40.5 27t-30.5 27.5t-12 20z" />
    <glyph glyph-name="l.003" unicode="&#xe064;" horiz-adv-x="307" 
d="M332 280q0 6 4.5 10t10 4t9 -5t1.5 -18q-6 -39 -17 -80t-28.5 -79t-41 -72t-54.5 -61q-27 -23 -59.5 -28.5t-62.5 11.5t-53.5 61t-31.5 120l-2 36q-12 -23 -27 -31t-29 -3.5t-26 20t-17 39.5q-9 -28 -31.5 -40t-55.5 -12.5t-73.5 8t-85.5 21.5t-92 27.5t-92 26.5
q-83 22 -138.5 14.5t-85.5 -31.5t-36.5 -58.5t8 -66t49 -54t85.5 -22.5q6 0 5.5 -5.5t-6.5 -5.5q-72 3 -115.5 33.5t-59 71.5t-4 84t51 71.5t106 33.5t160.5 -29q51 -19 102 -40t96 -36.5t82.5 -22.5t61.5 2t33 37t-3 83q-3 4 1.5 10.5t11.5 11.5t13 5.5t6 -7.5
q-1 -26 5 -52t15 -47t20.5 -34.5t23 -13.5t22 15t16.5 52q-1 11 -1 22v25q0 13 0.5 51t1 90t2 112.5t3.5 119t5 110t7 85.5q2 16 20 15.5t42.5 -10.5t52.5 -26t49.5 -31.5t33 -27.5t3.5 -13q-5 -5 -9 -36t-8 -76t-7.5 -98t-6 -102.5t-3.5 -89.5t-1 -58q0 -41 1 -82.5
t5 -74.5t12.5 -53.5t24.5 -19.5q14 1 29.5 20.5t29.5 50.5t25 68.5t17 74.5z" />
    <glyph glyph-name="m.003" unicode="&#xe065;" horiz-adv-x="920" 
d="M823 448q-5 -24 -10.5 -61.5t-9.5 -80.5t-5.5 -86t2.5 -78t14.5 -56t30.5 -20q14 1 29.5 20.5t29 50t24.5 68t17 74.5q-1 5 3.5 7t10 1.5t9.5 -4.5t3 -12q-6 -37 -17 -77t-28 -78t-41 -73.5t-55 -63.5q-26 -23 -59 -29t-63.5 11.5t-54 61.5t-30.5 120q-1 39 0.5 84t0 84
t-9 65.5t-26.5 28.5q-11 1 -23 -16t-23.5 -44.5t-22 -62.5t-18.5 -69v-121.5t2 -100.5q0 -16 -16.5 -16t-41.5 8.5t-53 23.5t-50.5 29.5t-34.5 25.5t-4 12q-1 26 1 61t4 72t3.5 73.5t-0.5 65t-8.5 46.5t-19.5 19q-9 0 -21 -21t-24.5 -53.5t-24.5 -72t-21 -76.5
q1 -59 1 -107.5t-4 -69.5q-7 -13 -23.5 -13t-37 7.5t-42.5 20t-40.5 27t-30.5 27.5t-12 20q0 8 -0.5 27t-0.5 45q-12 -20 -26 -25.5t-27.5 -0.5t-25 20t-16.5 38q-9 -28 -31.5 -40t-55.5 -12.5t-73.5 8t-85.5 21.5t-92 27.5t-92 26.5q-83 22 -138.5 14.5t-85.5 -31.5
t-36.5 -58.5t8 -66t48.5 -54t86 -22.5q6 0 5.5 -5.5t-6.5 -5.5q-72 3 -115.5 33.5t-59 71.5t-4 84t51 71.5t106 33.5t160.5 -29q51 -19 102 -40t96 -36.5t82.5 -22.5t61.5 2t33 37t-3 83q-3 4 1.5 10.5t11.5 11.5t13 5.5t6 -7.5q-1 -26 4.5 -51.5t14.5 -46.5t20.5 -34.5
t23 -14.5t21.5 13.5t17 49.5q0 38 0.5 81t3 85t6 80t9.5 67q3 15 21 14.5t43 -10t52.5 -25.5t49 -31.5t32.5 -27.5t3 -13q-13 -24 -19 -61.5t-9 -81.5q10 31 21 63t24 61.5t27.5 54.5t31.5 43q21 23 44.5 28.5t46 0t43.5 -19t36.5 -29.5t25 -31t9.5 -23q0 -14 -0.5 -51
t-0.5 -87q9 31 19.5 61.5t23.5 58.5t27.5 51.5t31.5 40.5q24 24 50.5 30.5t51.5 0.5t47 -20t38.5 -31t25 -34t6.5 -27z" />
    <glyph glyph-name="n.003" unicode="&#xe066;" horiz-adv-x="618" 
d="M522 448q-5 -24 -10.5 -61.5t-9.5 -80.5t-5.5 -86t2.5 -78t14.5 -56t30.5 -20q14 1 29.5 20.5t29 50t24.5 68t17 74.5q1 6 6.5 7.5t11 0t8.5 -6t0 -9.5q-7 -39 -18.5 -79.5t-28 -78.5t-40 -72.5t-54.5 -61.5q-27 -23 -59.5 -28.5t-63 11.5t-54 61t-30.5 120q-1 39 0.5 88
t0.5 91t-8.5 69t-26.5 23q-12 -3 -26 -29t-27.5 -63.5t-25.5 -81.5t-20 -83q1 -49 1 -88t-4 -58q-7 -13 -23.5 -13t-37 7.5t-42.5 20t-40.5 27t-30.5 27.5t-12 20v26.5t-1 43.5q-12 -19 -26 -24.5t-27.5 0t-24.5 20.5t-16 38q-9 -28 -31.5 -40t-55.5 -12.5t-73.5 8
t-85.5 21.5t-92 27.5t-92 26.5q-83 22 -138.5 14.5t-85.5 -31.5t-36.5 -58.5t8 -66t49 -54t85.5 -22.5q6 0 5.5 -5.5t-6.5 -5.5q-72 3 -115.5 33.5t-59 71.5t-4 84t51 71.5t106 33.5t160.5 -29q51 -19 102 -40t96 -36.5t82.5 -22.5t61.5 2t32.5 37t-2.5 83q-3 4 1.5 10.5
t11.5 11.5t13 5.5t6 -7.5q-1 -25 4.5 -50.5t14.5 -46.5t20 -35t22.5 -15.5t21.5 12t17 46.5q0 39 0.5 82.5t3 86t6 81.5t9.5 68q3 15 21 14.5t43 -10t52.5 -25.5t49 -31.5t32.5 -27.5t3 -13q-14 -28 -20.5 -73.5t-8.5 -97.5q9 34 20.5 70.5t25.5 70t30.5 62t36.5 47.5
q24 24 50.5 30.5t51.5 0.5t47 -20t38.5 -31t25 -34t6.5 -27z" />
    <glyph glyph-name="o.003" unicode="&#xe067;" horiz-adv-x="549" 
d="M586 277q8 12 15 7.5t3 -18.5q-3 -9 -13 -24.5t-27.5 -30t-42.5 -25t-58 -11.5q-9 -61 -35.5 -102.5t-60.5 -67.5t-71 -37t-67 -11q-49 1 -88 19.5t-68 50t-47.5 74t-26.5 90.5q-11 -29 -27 -39.5t-31.5 -7.5t-28 19t-18.5 41q-9 -28 -31.5 -40t-55.5 -12.5t-73.5 8
t-85.5 21.5t-92 27.5t-92 26.5q-83 22 -138.5 14.5t-85.5 -31.5t-36.5 -58.5t8 -66t49 -54t85.5 -22.5q6 0 5.5 -5.5t-6.5 -5.5q-72 3 -115.5 33.5t-59 71.5t-4 84t51 71.5t106 33.5t160.5 -29q51 -19 102 -40t96 -36.5t82.5 -22.5t61.5 2t32.5 37t-2.5 83q-3 4 1.5 10.5
t11.5 11.5t13 5.5t6 -7.5q-1 -27 5 -53.5t15.5 -48t21.5 -34t24 -11t22 20t16 60.5q-4 80 17.5 159.5t70.5 141.5q8 10 19.5 11.5t25 -4.5t27 -17t26.5 -24q33 38 88 38q36 2 76.5 -15.5t72 -58t48 -107t3.5 -163.5q30 -1 62 13t58 55zM296 194q-38 12 -66 32t-48 45
q-4 -47 -3 -96t7 -89t18 -65.5t31 -24.5q27 2 41 51t20 147zM296 229q6 131 -6 195.5t-58 64.5q-15 0 -28 -8q14 -20 20 -36t-2 -21q-12 -8 -21 -36.5t-14 -68.5q15 -28 41.5 -51.5t67.5 -38.5z" />
    <glyph glyph-name="p.003" unicode="&#xe068;" horiz-adv-x="623" 
d="M681 299q12 -2 17.5 -12t-7.5 -16q-43 1 -82.5 -4.5t-74.5 -14.5q-4 -66 -24 -127.5t-54.5 -103.5t-82.5 -57t-109 13q-35 16 -44.5 40.5t1 53.5t37.5 60t66 60q2 35 1.5 69t-5 61t-12.5 43t-20 16q-15 -1 -29 -17t-26 -43t-22 -62.5t-17 -75.5q-1 -59 -1.5 -122t0 -124
t1 -117.5t0.5 -101.5t-1 -76t-3 -41q-7 -13 -23.5 -13t-37 7.5t-42.5 20t-40.5 27t-30.5 27.5t-12 20q0 10 -0.5 56t-1 114t-1 151t-0.5 166q-12 -22 -26.5 -29t-28.5 -2t-25.5 20.5t-16.5 38.5q-9 -28 -31.5 -40t-55.5 -12.5t-73.5 8t-85.5 21.5t-92 27.5t-92 26.5
q-83 22 -138.5 14.5t-85.5 -31.5t-36.5 -58.5t8 -66t49 -54t85.5 -22.5q6 0 5.5 -5.5t-6.5 -5.5q-72 3 -115.5 33.5t-59 71.5t-4 84t51 71.5t106 33.5t160.5 -29q51 -19 102 -40t96 -36.5t82.5 -22.5t61.5 2t33 37t-3 83q-3 4 1.5 10.5t11.5 11.5t13 5.5t6 -7.5
q-1 -26 5 -52.5t15 -48t21 -34.5t24 -12t22 18t16 57q0 52 -0.5 100t-0.5 88v71v48q0 16 18.5 15t45.5 -11t58 -26.5t55.5 -32.5t38 -28t5.5 -13q-8 -15 -12.5 -46.5t-8.5 -76.5q13 43 29.5 83t35.5 70t40.5 48.5t46.5 20.5q46 2 80.5 -19t57 -58t34 -85.5t11.5 -100.5
q36 8 73 11.5t73 -1.5zM260 37q10 -13 19 -9.5t16.5 19t13.5 40.5t10 55q-38 -34 -53.5 -63t-5.5 -42z" />
    <glyph glyph-name="q.003" unicode="&#xe069;" 
d="M632 280q1 5 5 7t8.5 0.5t8 -5.5t2.5 -11q-6 -52 -21.5 -97t-37.5 -80.5t-49 -59.5t-57 -33v-5q55 -35 83 -77.5t35 -86.5t-3.5 -86t-32 -74.5t-51.5 -52t-62 -19.5q-28 0 -51.5 7.5t-42.5 28.5t-32.5 59t-21 98t-8 146t7.5 204q-11 -53 -41 -93.5t-77 -49.5
q-39 -8 -70 4t-54.5 37t-39 61.5t-23.5 78.5q-11 -24 -26 -32.5t-30 -4t-27 20t-17 39.5q-9 -28 -31.5 -40t-55.5 -12.5t-73.5 8t-85.5 21.5t-92 27.5t-92 26.5q-83 22 -138.5 14.5t-85.5 -31.5t-36.5 -58.5t8 -66t48.5 -54t86 -22.5q6 0 5.5 -5.5t-6.5 -5.5
q-72 3 -115.5 33.5t-59 71.5t-4 84t51 71.5t106 33.5t160.5 -29q51 -19 102 -40t96 -36.5t82.5 -22.5t61.5 2t33 37t-3 83q-3 4 1.5 10.5t11.5 11.5t13 5.5t6 -7.5q-1 -26 4.5 -51.5t14.5 -46.5t20 -34.5t22.5 -14.5t21.5 12.5t17 47.5q-4 48 2.5 97t22.5 91.5t42.5 75
t63.5 48t84 10t105 -38.5l6 34q3 15 21 14.5t43 -10t52.5 -25.5t49 -31.5t32.5 -27.5t3 -13q-8 -9 -14.5 -28t-11.5 -44.5t-8.5 -56t-4.5 -61.5q-1 -16 -1 -40.5v-54t0.5 -63.5t1.5 -68q40 20 66 55t42 72t23.5 69.5t10.5 48.5zM223 91q16 -10 31.5 4t27.5 37t19 48t6 38
q0 18 0.5 48.5t2 67t3.5 75.5t5 73q-37 6 -62 -18.5t-39.5 -65.5t-20 -91t-4 -95.5t9.5 -79t21 -41.5zM515 -230q20 -27 35.5 -15.5t17.5 44.5t-15 79t-61 87q2 -36 4 -69t5 -59t6.5 -43.5t7.5 -23.5z" />
    <glyph glyph-name="r.003" unicode="&#xe070;" horiz-adv-x="451" 
d="M156 143q-1 13 -2.5 45.5t-1.5 75.5t1 91.5t5 94.5q-17 -15 -37 -17.5t-46 5.5q-3 -28 -9.5 -67t-16 -78t-22.5 -72.5t-29.5 -50.5t-37 -11t-44.5 45q-9 -28 -31.5 -40t-55.5 -12.5t-73.5 8t-85.5 21.5t-92 27.5t-92 26.5q-83 22 -138.5 14.5t-85.5 -31.5t-36.5 -58.5
t8 -66t48.5 -54t86 -22.5q6 0 5.5 -5.5t-6.5 -5.5q-72 3 -115.5 33.5t-59 71.5t-4 84t51 71.5t106 33.5t160.5 -29q51 -19 102 -40t96 -36.5t82.5 -22.5t61.5 2t33 37t-3 83q-3 4 1.5 10.5t11.5 11.5t13 5.5t6 -7.5q-1 -39 6.5 -68.5t20.5 -44.5t29 -11.5t32.5 31t31 82
t23.5 143.5q-17 8 -45 31t-50.5 60t-32 86.5t10.5 109.5q4 9 20 6t37 -13.5t43.5 -26t40.5 -31t27.5 -28t3.5 -18.5q-9 -9 -14.5 -31t-8.5 -47t-4 -46t-1 -28q26 -9 47 -5t36 33q2 13 4 24l4 22q3 15 21 14.5t43 -10t52.5 -25.5t49 -31.5t32.5 -27.5t3 -13q-11 -13 -20 -47
t-14 -77t-6 -89.5t3.5 -85t14.5 -63t28 -23.5q14 1 30 22.5t30 53.5t24.5 69t15.5 69q1 7 5.5 10t9.5 1.5t8.5 -6.5t1.5 -14q-9 -38 -20.5 -78t-27.5 -79t-38.5 -73.5t-53.5 -61.5q-27 -23 -59.5 -28.5t-63 11.5t-54 61t-30.5 120z" />
    <glyph glyph-name="s.003" unicode="&#xe071;" horiz-adv-x="466" 
d="M238 481q-25 -10 -23.5 -27t18.5 -39.5t44 -49.5t54 -57.5t47.5 -64t24.5 -67.5q6 -59 -14 -103q35 32 62 82t39 125q2 10 7 14.5t9.5 3.5t7.5 -8t1 -19q-12 -75 -40 -133.5t-67 -99.5t-87 -63t-99 -23q-51 -2 -91 16.5t-70 48t-50 67t-30 74.5q-12 -15 -25.5 -18
t-26.5 4t-23 22.5t-15 37.5q-9 -28 -31.5 -40t-55.5 -12.5t-73.5 8t-85.5 21.5t-92 27.5t-92 26.5q-83 22 -138.5 14.5t-85.5 -31.5t-36.5 -58.5t8 -66t49 -54t85.5 -22.5q6 0 5.5 -5.5t-6.5 -5.5q-72 3 -115.5 33.5t-59 71.5t-4 84t51 71.5t106 33.5t160.5 -29
q51 -19 102 -40t96 -36.5t82.5 -22.5t61.5 2t33 37t-3 83q-3 4 1.5 10.5t11.5 11.5t13 5.5t6 -7.5q-1 -35 8.5 -70t23.5 -57.5t30 -26.5t28 25q-7 42 0 75t28 44q6 6 7 3q10 2 21 1t25 -8q17 -9 37 -29t37.5 -45.5t30 -52.5t16 -48.5t-5 -33.5t-33.5 -8q-26 4 -39 -7.5
t-12.5 -27t15 -28t43.5 -10.5q24 2 41 15.5t24 36.5t3 54.5t-21 68.5q-16 35 -37 62t-42 50t-40 43t-30.5 41t-14 44.5t9.5 52.5q16 38 47.5 59.5t69.5 27t78.5 -3.5t74 -32.5t55.5 -61t23 -87.5q0 -15 -11.5 -21t-25.5 -5t-26 8.5t-12 20.5q0 11 -4.5 30.5t-14 36.5
t-23 27.5t-31.5 3.5z" />
    <glyph glyph-name="t.003" unicode="&#xe072;" horiz-adv-x="304" 
d="M-49 570q-4 2 -2.5 13.5t6 24t10 22.5t10.5 10l25 -4q0 13 0.5 31t1.5 36.5t1.5 36.5t1.5 31q1 16 19 15.5t43.5 -10.5t54 -26t51.5 -31.5t35 -27.5t4 -13q-2 -2 -3 -10.5t-2.5 -20t-2.5 -24t-2 -20.5q11 -2 22 -2.5t22 -1.5q5 0 8 -4.5t3.5 -10t-2 -10.5t-7.5 -6
q-21 -2 -51 0q-5 -42 -8 -95.5t-4.5 -109.5t-0.5 -109.5t6 -95.5t14 -67.5t24 -24.5q14 1 29.5 20.5t29.5 50.5t25.5 68.5t17.5 74.5q1 6 5.5 8.5t10 1.5t9 -6t1.5 -13q-9 -45 -21 -86t-28.5 -78t-39.5 -69t-54 -59q-27 -23 -58 -28.5t-60 12t-53 61t-36 119.5q-2 8 -3 18.5
t-2 21.5q-12 -25 -27 -33.5t-30 -4.5t-27 19.5t-17 39.5q-9 -28 -31.5 -40t-55.5 -12.5t-73.5 8t-85.5 21.5t-92 27.5t-92 26.5q-83 22 -138.5 14.5t-85.5 -31.5t-36.5 -58.5t8 -66t49 -54t85.5 -22.5q6 0 5.5 -5.5t-6.5 -5.5q-72 3 -115.5 33.5t-59 71.5t-4 84t51 71.5
t106 33.5t160.5 -29q51 -19 102 -40t96 -36.5t82.5 -22.5t61.5 2t32.5 37t-2.5 83q-3 4 1.5 10.5t11.5 11.5t13 5.5t6 -7.5q-1 -26 5 -52.5t15 -48t21 -34.5t24 -12.5t22 18t16 57.5q-6 122 0 330z" />
    <glyph glyph-name="u.003" unicode="&#xe073;" 
d="M632 280q0 7 4.5 10t10 2t9 -6t1.5 -15q-8 -43 -19 -84t-27.5 -78.5t-39.5 -70t-54 -59.5q-27 -23 -59.5 -28.5t-62.5 11.5t-53.5 61t-31.5 120q-11 -53 -41 -93.5t-77 -49.5q-39 -8 -71 4.5t-55.5 38.5t-39 63.5t-22.5 80.5q-11 -27 -26.5 -37t-30.5 -6t-27.5 19.5
t-18.5 40.5q-9 -28 -31.5 -40t-55.5 -12.5t-73.5 8t-85.5 21.5t-92 27.5t-92 26.5q-83 22 -138.5 14.5t-85.5 -31.5t-36.5 -58.5t8 -66t49 -54t85.5 -22.5q6 0 5.5 -5.5t-6.5 -5.5q-72 3 -115.5 33.5t-59 71.5t-4 84t51 71.5t106 33.5t160.5 -29q51 -19 102 -40t96 -36.5
t82.5 -22.5t61.5 2t32.5 37t-2.5 83q-3 4 1.5 10.5t11.5 11.5t13 5.5t6 -7.5q-1 -26 5 -52.5t15.5 -48t21 -34.5t23.5 -12t22.5 18.5t16.5 57.5q0 5 -0.5 9.5t-0.5 9.5v82.5t0.5 52t1 34t1.5 28t2.5 35.5t3.5 55q0 10 16.5 9t40.5 -9.5t51 -22t50 -27t36.5 -25.5t10.5 -17
q-6 -10 -9 -23t-5 -36t-3 -59t-3 -92q-2 -64 6.5 -100.5t24.5 -46.5t30.5 2.5t25.5 34t18 45.5t8 36q0 22 1 64t3 90t6 94.5t10 77.5q3 15 21 14.5t43 -10t52.5 -25.5t49 -31.5t32.5 -27.5t3 -13q-11 -13 -20 -47t-14 -77t-6 -89.5t3.5 -85t14.5 -63t28 -23.5
q14 1 29.5 20.5t29 50.5t24.5 68.5t17 74.5z" />
    <glyph glyph-name="v.003" unicode="&#xe074;" horiz-adv-x="576" 
d="M608 329q3 4 8 4t9 -1.5t6.5 -5t0.5 -7.5q-12 -26 -28.5 -49.5t-39 -41t-52 -25.5t-68.5 -3q-17 -53 -43 -97t-55 -76.5t-59 -51.5t-54 -20q-48 -3 -84.5 17.5t-64.5 57t-48 85t-34 101.5q-10 -39 -26.5 -56.5t-33.5 -16.5t-31.5 17.5t-20.5 43.5q-9 -28 -31.5 -40
t-55.5 -12.5t-73.5 8t-85.5 21.5t-92 27.5t-92 26.5q-83 22 -138.5 14.5t-85.5 -31.5t-36.5 -58.5t8 -66t48.5 -54t86 -22.5q6 0 5.5 -5.5t-6.5 -5.5q-72 3 -115.5 33.5t-59 71.5t-4 84t51 71.5t106 33.5t160.5 -29q51 -19 102 -40t96 -36.5t82.5 -22.5t61.5 2t33 37t-3 83
q-3 4 1.5 10.5t11.5 11.5t13 5.5t6 -7.5q-1 -28 5.5 -55.5t16.5 -49t22.5 -33.5t24.5 -8t22 26.5t15 71.5q-9 39 -15 78t-10.5 74t-8.5 65.5t-7 53.5q-3 18 12.5 18.5t40 -10t53 -28.5t52.5 -37t38.5 -35.5t11.5 -24.5q-6 -14 -5 -51t6 -84t13 -97.5t16.5 -92.5t17 -69
t14.5 -26t14.5 22.5t18.5 55t19.5 74t15.5 79.5q-35 20 -56 57.5t-29 81.5t-3.5 90t21.5 83.5t46.5 61t70.5 23.5q56 0 94.5 -23.5t55 -72t10.5 -121.5t-39 -172q15 -5 34 -4t39.5 10t40.5 29t36 55zM300 264q3 19 9 50t12 66t10.5 69.5t3.5 61.5t-9 42.5t-26 11.5
q-25 -6 -42.5 -25.5t-27 -47t-10 -60.5t7.5 -64.5t26 -59t46 -44.5z" />
    <glyph glyph-name="w.003" unicode="&#xe075;" horiz-adv-x="867" 
d="M897 329q3 4 8 4t9 -1.5t6.5 -5t0.5 -7.5q-12 -26 -28.5 -49.5t-39 -41t-52 -25.5t-68.5 -3q-17 -53 -43 -97t-55 -76.5t-59 -51.5t-54 -20q-45 -3 -80 15.5t-62 51t-47 76.5t-35 94q-6 -41 -14 -76.5t-18.5 -61t-23.5 -40t-29 -14.5q-42 0 -74 16.5t-55.5 44.5
t-39.5 65.5t-27 80.5q-10 -36 -26.5 -50.5t-33 -13t-30.5 17.5t-20 43q-9 -28 -31.5 -40t-55.5 -12.5t-73.5 8t-85.5 21.5t-92 27.5t-92 26.5q-83 22 -138.5 14.5t-85.5 -31.5t-36.5 -58.5t8 -66t48.5 -54t86 -22.5q6 0 5.5 -5.5t-6.5 -5.5q-72 3 -115.5 33.5t-59 71.5
t-4 84t51 71.5t106 33.5t160.5 -29q51 -19 102 -40t96 -36.5t82.5 -22.5t61.5 2t33 37t-3 83q-3 4 1.5 10.5t11.5 11.5t13 5.5t6 -7.5q-1 -27 5 -54.5t16 -48.5t22 -33.5t24 -10t22.5 23.5t15.5 66q-8 40 -12.5 80.5t-7.5 78.5t-5.5 71.5t-6.5 59.5q-3 18 12 17.5t38.5 -12
t51 -31t50.5 -39.5t37.5 -37.5t10.5 -24.5q-6 -14 -7 -48t2 -76.5t9 -88t14 -80.5t17 -54.5t17 -11.5q1 1 7 24t13 58.5t13.5 80t9.5 90.5q-12 66 -19 125t-12 98q-3 18 12.5 18.5t40 -10t53 -28.5t52.5 -37t38.5 -35.5t11.5 -24.5q-6 -14 -5 -51t6 -84t13 -97.5t16.5 -92.5
t17 -69t14.5 -26t14.5 22.5t18.5 55t19.5 74t15.5 79.5q-35 20 -56 57.5t-29 81.5t-3.5 90t21.5 83.5t46.5 61t70.5 23.5q56 0 94.5 -23.5t55 -72t10.5 -121.5t-39 -172q15 -5 34 -4t39.5 10t40.5 29t36 55zM589 264q3 19 9 50t12 66t10.5 69.5t3.5 61.5t-9 42.5t-26 11.5
q-25 -6 -42.5 -25.5t-27 -47t-10 -60.5t7.5 -64.5t26 -59t46 -44.5z" />
    <glyph glyph-name="x.003" unicode="&#xe076;" horiz-adv-x="519" 
d="M425 549q4 2 13 -7t17 -21.5t13.5 -24.5t2.5 -15q-12 -3 -29.5 -18t-39.5 -38.5t-47 -54t-51 -65.5q13 -42 31 -85.5t37 -78t38.5 -55.5t36.5 -20q29 2 56 57t44 156q1 6 5.5 7.5t9.5 0t8.5 -6t2.5 -9.5q-8 -44 -19 -91t-27.5 -88t-39.5 -71.5t-55 -41.5
q-39 -14 -73.5 -7.5t-65.5 28t-57.5 56.5t-49.5 78q-23 -36 -43 -70.5t-35 -63.5q-4 -2 -10.5 -4t-12.5 -2t-9.5 1t-1.5 5q13 30 38 73.5t57 94.5q-30 63 -52.5 133t-39.5 136q1 -28 -4 -68t-15.5 -80t-25.5 -75t-33.5 -51.5t-39 -9t-41.5 50.5q-9 -28 -31.5 -40
t-55.5 -12.5t-73.5 8t-85.5 21.5t-92 27.5t-92 26.5q-83 22 -138.5 14.5t-85.5 -31.5t-36.5 -58.5t8 -66t49 -54t85.5 -22.5q6 0 5.5 -5.5t-6.5 -5.5q-72 3 -115.5 33.5t-59 71.5t-4 84t51 71.5t106 33.5t160.5 -29q51 -19 102 -40t96 -36.5t82.5 -22.5t61.5 2t33 37t-3 83
q-3 4 1 10.5t10.5 11.5t13 5.5t7.5 -7.5q10 -72 26 -103.5t33.5 -30t34 31t27.5 80t14 118t-7 143.5v1q-3 15 14 16.5t44.5 -6.5t59 -22.5t57 -29.5t40 -28.5t6.5 -19.5q-1 -8 2 -20t7.5 -27t9.5 -31t9 -32q23 34 44 64.5t39 56t31.5 44.5t21.5 30z" />
    <glyph glyph-name="y.003" unicode="&#xe077;" horiz-adv-x="603" 
d="M219 87q13 -8 25.5 -1t24.5 22.5t21.5 36.5t16.5 41v86.5t1.5 102t4.5 97.5t9 72q3 15 21 14.5t43 -10t52.5 -25.5t49 -31.5t32.5 -27.5t3 -13q-8 -9 -12 -27.5t-5.5 -43.5t-2 -55.5t-1.5 -63.5q-1 -32 -0.5 -75.5t-0.5 -94.5q43 29 78 73.5t50 115.5q1 5 6 7.5t10 1.5
t8.5 -5t1.5 -13q-9 -45 -24 -79t-35.5 -61t-44.5 -47.5t-51 -37.5q-2 -51 -5.5 -103.5t-11 -102t-20 -93.5t-32 -76.5t-46 -51.5t-62.5 -19q-36 -6 -71.5 7t-62.5 39.5t-40 64.5t-3.5 83t46.5 93.5t110 96.5l4 126q-20 -41 -50 -71.5t-68 -38.5q-39 -8 -70.5 4t-54.5 37.5
t-39 62t-23 78.5q-12 -24 -27 -33t-30 -4.5t-27 20t-17 39.5q-9 -28 -31.5 -40t-55.5 -12.5t-73.5 8t-85.5 21.5t-92 27.5t-92 26.5q-83 22 -138.5 14.5t-85.5 -31.5t-36.5 -58.5t8 -66t49 -54t85.5 -22.5q6 0 5.5 -5.5t-6.5 -5.5q-72 3 -115.5 33.5t-59 71.5t-4 84t51 71.5
t106 33.5t160.5 -29q51 -19 102 -40t96 -36.5t82.5 -22.5t61.5 2t32.5 37t-2.5 83q-3 4 1.5 10.5t11.5 11.5t13 5.5t6 -7.5q-1 -26 4.5 -51.5t14.5 -46.5t20.5 -34.5t23 -14.5t21.5 13t17 49q-1 8 -1 16.5v16.5v82.5t0.5 52t1 34t1.5 28t2.5 35.5t3.5 55q0 10 16.5 9
t40.5 -9.5t51 -22t50 -27t36.5 -25.5t10.5 -17q-6 -10 -9 -23t-5 -36t-3 -59t-3 -92q-2 -64 6.5 -107t24.5 -53zM293 -258q1 6 2 29q1 19 2.5 57t3.5 104q-57 -43 -81 -83.5t-26 -73.5t11.5 -55.5t32 -29.5t35 5t20.5 47z" />
    <glyph glyph-name="z.003" unicode="&#xe078;" horiz-adv-x="614" 
d="M272 164q16 16 46.5 21t64.5 -7.5t66 -45.5t52 -93q31 23 54.5 51t40.5 58.5t27 62.5t14 63q1 5 6 9t10.5 4.5t9.5 -2.5t3 -12q-5 -32 -14.5 -67.5t-27 -71.5t-45.5 -70t-68 -63l6 -29q6 -44 -0.5 -93.5t-25 -96.5t-50 -88t-74 -68t-96.5 -35.5t-118 9.5q-55 15 -74 55
t1 91.5t80 107.5t163 103q-2 34 -12 61.5t-29.5 41.5t-49 11t-70.5 -28q-4 -4 -19 9t-29 34t-22.5 44.5t0.5 41.5q11 22 18.5 35.5t15 26t17.5 29t26 44t39.5 70t58.5 108.5q-30 -19 -62 -24.5t-57.5 -5.5t-42.5 2t-17 -2q-4 -28 -12 -71t-20 -87t-27.5 -82t-34 -56.5
t-38.5 -10.5t-41 56q-9 -28 -31.5 -40t-55.5 -12.5t-73.5 8t-85.5 21.5t-92 27.5t-92 26.5q-83 22 -138.5 14.5t-85.5 -31.5t-36.5 -58.5t8 -66t48.5 -54t86 -22.5q6 0 5.5 -5.5t-6.5 -5.5q-72 3 -115.5 33.5t-59 71.5t-4 84t51 71.5t106 33.5t160.5 -29q51 -19 102 -40
t96 -36.5t82.5 -22.5t61.5 2t32.5 37t-2.5 83q-3 4 1 10.5t10.5 11.5t13 5.5t7.5 -7.5q12 -81 29 -110t35 -21.5t34.5 44.5t28.5 89.5t17.5 113.5t0.5 116q3 11 15.5 9.5t31.5 -8t43.5 -15t53 -11.5t60 2t63.5 26q7 6 26.5 4t44.5 -8.5t51 -16t46.5 -19t31.5 -17.5t5 -11
q-33 -17 -71.5 -55t-74.5 -84t-65 -94t-43 -84zM166 -341q30 -5 57 16.5t47.5 58t34 82.5t17.5 91q-71 -39 -118 -80.5t-68 -76.5t-14 -60t44 -31z" />
    <glyph glyph-name="a" unicode="a" horiz-adv-x="595" 
d="M621 280q2 7 7 10.5t9.5 2.5t7.5 -6.5t1 -15.5q-6 -32 -16.5 -71.5t-26.5 -79.5t-40 -77t-57 -64q-27 -22 -59.5 -27.5t-62.5 11.5t-53.5 60.5t-31.5 119.5q-11 -53 -41 -93.5t-77 -49.5q-54 -11 -93 15t-63 73t-33 108t-2 122t30 114.5t62.5 84.5t96 33t129.5 -40l6 34
q3 15 21 14.5t43 -10t52.5 -25.5t49 -31.5t32.5 -27.5t3 -13q-11 -13 -20 -47t-14 -77t-6 -89.5t3.5 -85t14.5 -63t28 -23.5q14 1 29 20.5t28.5 50.5t25 68.5t17.5 74.5zM212 71q16 -10 29 3.5t23.5 38t17.5 54t12 51.5q0 17 0.5 47.5t2 67t3.5 75.5t5 73q-28 4 -48.5 -10.5
t-35.5 -41t-24 -61.5t-13 -73t-3.5 -75.5t4.5 -68.5t11 -52.5t16 -27.5z" />
    <glyph glyph-name="b" unicode="b" horiz-adv-x="611" 
d="M647 306q18 0 24.5 -5.5t5 -12t-8.5 -11.5t-16 -5q-38 -2 -72.5 -8t-66.5 -16q-6 -45 -18.5 -88.5t-31 -80.5t-42.5 -65.5t-51.5 -43.5t-59 -14.5t-64.5 21.5q-31 19 -38.5 43.5t2.5 51.5t35.5 55.5t60.5 54.5q6 48 7.5 99.5t-2.5 94.5t-15.5 71t-30.5 29
q-23 1 -41 -12.5t-33 -36.5q-1 -69 -1 -137.5v-126t-0.5 -98.5t-3.5 -54q-7 -13 -23.5 -13t-37 7.5t-42.5 20t-40.5 27t-30.5 27.5t-12 20v752q0 16 18.5 15t45.5 -11t58 -26.5t55.5 -32.5t38 -28t5.5 -13q-7 -14 -12 -40t-8.5 -61.5t-5.5 -77.5t-3 -88q23 26 52 44t67 23
q60 8 100.5 -12t65.5 -58.5t34 -90.5t6 -109q69 20 130 20zM242 37q8 -11 15.5 -8.5t14.5 15.5t13.5 34.5t11.5 48.5q-33 -31 -47.5 -56t-7.5 -34z" />
    <glyph glyph-name="c" unicode="c" horiz-adv-x="450" 
d="M308 371q-24 -28 -37 -32.5t-18.5 4t-4 25.5t7 32.5t14 25t17.5 2.5q4 -8 13.5 -2.5t16 16t7 23t-13.5 18.5q-25 11 -47.5 -12t-39 -65.5t-25.5 -98t-7 -109t16.5 -97.5t45.5 -64q22 -15 54.5 -11.5t64.5 30.5t60 80t42 138q1 10 6 14t10 3t8 -6.5t2 -15.5
q-22 -152 -94.5 -233t-198.5 -79q-68 1 -113.5 31t-70 78t-30 107t4.5 118.5t34.5 113t60 90t81 49.5t98.5 -8q26 -11 47 -26t35 -26q15 -12 13.5 -27t-11.5 -30.5t-24 -30t-24 -25.5z" />
    <glyph glyph-name="d" unicode="d" horiz-adv-x="609" 
d="M634 280q1 7 6 11t10 3t8.5 -6.5t1.5 -16.5q-11 -53 -23 -95.5t-27.5 -77t-37.5 -63.5t-53 -56q-27 -23 -59.5 -28.5t-62.5 11.5t-53.5 61t-31.5 120q-11 -53 -41 -93.5t-77 -49.5q-53 -11 -92 14t-63 71.5t-33 107t-2.5 121t28.5 114t60 85.5t93 36t126 -34
q1 53 2.5 105t3.5 96t5 77.5t6 49.5q3 15 21 14.5t43 -10t52.5 -25.5t49 -31.5t32.5 -27.5t3 -13q-6 -7 -10.5 -40.5t-8.5 -82t-7.5 -106t-6 -111t-4 -97.5t-2.5 -66q-1 -35 0.5 -68t7 -58.5t14 -40.5t22.5 -14t29.5 20.5t29 50.5t24.5 68.5t17 74.5zM225 71q16 -10 29 3.5
t23.5 38t17.5 54t12 51.5v35t0.5 60.5t1 78.5t1.5 90q-35 1 -58.5 -26.5t-37 -71t-18 -95t-2.5 -97.5t10.5 -80t20.5 -41z" />
    <glyph glyph-name="e" unicode="e" horiz-adv-x="447" 
d="M332 356q-11 -16 -26 -38t-31.5 -46t-34.5 -49t-35 -47q4 -52 17 -90.5t37 -48.5q33 -14 65.5 -1.5t61 46t51 84t35.5 113.5q2 10 6.5 11t8.5 -3t7 -11t2 -12q-8 -56 -29.5 -111.5t-57 -99t-84.5 -70.5t-112 -26q-68 1 -113.5 31t-70 78t-30 107t4.5 118.5t34.5 113
t60 90t81 49.5t98.5 -8q26 -11 46.5 -26t35.5 -26q14 -14 14.5 -30.5t-6.5 -34t-18 -34t-18 -29.5zM316 483q-26 3 -46.5 -19.5t-34.5 -59t-22 -83.5t-9 -94q22 34 45.5 72.5t41 74t25.5 64.5t0 45z" />
    <glyph glyph-name="f" unicode="f" horiz-adv-x="338" 
d="M390 319q3 6 5 2t2.5 -11t-0.5 -14t-4 -7q-27 -2 -46.5 -3t-39 -1.5t-43.5 -0.5h-58q41 -31 66 -77t37.5 -99.5t13.5 -112t-7 -115t-23.5 -107.5t-35.5 -89.5t-43.5 -61t-47.5 -22.5q-42 0 -70.5 20t-46.5 79.5t-28 168t-14 285.5q-1 27 0 80.5t3.5 119.5t5.5 139.5
t6.5 141.5t6.5 123.5t6 86.5q1 16 19 15.5t43 -10.5t52.5 -26t49.5 -31.5t33.5 -27.5t3.5 -13q-5 -5 -9 -30t-7.5 -61.5t-7 -81.5t-6.5 -91.5t-5 -90t-4 -77.5q26 0 54 -0.5t54 -1t48.5 -0.5t36.5 2zM221 -230q11 -5 24 16.5t22.5 60.5t13.5 90.5t-3 106t-26.5 107
t-57.5 93.5q-1 -30 -1.5 -75.5t-0.5 -97t1.5 -103.5t4.5 -95t8.5 -71t14.5 -32z" />
    <glyph glyph-name="g" unicode="g" horiz-adv-x="575" 
d="M599 280q3 7 8 9.5t9.5 1t7 -7t1.5 -12.5q-15 -81 -51.5 -133t-87.5 -89q-1 -77 -8 -156.5t-26 -144.5t-52 -106.5t-87 -41.5q-36 -6 -71.5 7t-62.5 39.5t-40 64.5t-3.5 82.5t46.5 93t110 96.5q2 33 2.5 72.5t2.5 87.5q-11 -53 -41 -93.5t-77 -49.5q-54 -11 -93 14.5
t-63 72.5t-33 108.5t-2 122.5t30 114t62.5 84.5t96 33.5t129.5 -40q1 9 2.5 17.5t3.5 16.5q3 15 21 14.5t43 -10t52.5 -25.5t49 -31.5t32.5 -27.5t3 -13q-16 -18 -21 -65t-6 -116q-1 -32 0 -78t1 -100q40 30 69.5 74t42.5 114zM214 94q16 -10 28 3t21 37t15.5 53t11.5 51
q0 17 1 45.5t2 61.5t3.5 69t5.5 68q-37 6 -61 -18.5t-38 -65t-18.5 -90t-2 -95t10.5 -78.5t21 -41zM283 -258q1 3 2 24q1 18 2.5 56t3.5 110q-57 -43 -81 -83.5t-26 -73.5t11.5 -55.5t32 -29.5t35 5t20.5 47z" />
    <glyph glyph-name="h" unicode="h" horiz-adv-x="618" 
d="M523 448q-5 -24 -10.5 -61.5t-9.5 -80.5t-5.5 -86t2.5 -78t14.5 -56t30.5 -20q14 1 29 20t28.5 49t24.5 68t17 76q1 3 6 5.5t10 2.5t8.5 -3.5t1.5 -12.5q-17 -92 -47.5 -165.5t-92.5 -126.5q-27 -23 -59.5 -28.5t-63 11.5t-54 61t-30.5 120q-1 39 0.5 92t0.5 100.5
t-8.5 79t-26.5 27.5q-13 -3 -27 -29.5t-27.5 -65t-25 -82.5t-18.5 -82q0 -65 -0.5 -111.5t-3.5 -60.5q-7 -13 -23.5 -13t-37 7.5t-42.5 20t-40.5 27t-30.5 27.5t-12 20v40v79v106t0.5 121t2 124.5t4 117t5.5 96.5t8 65q3 15 21 14.5t43 -10t52.5 -25.5t49 -31.5t32.5 -27.5
t3 -13q-11 -21 -17.5 -71.5t-9.5 -117t-3.5 -142t-0.5 -147.5q9 34 20.5 70.5t25.5 70.5t30.5 62.5t36.5 47.5q24 24 50.5 30.5t51.5 0.5t47 -20t38.5 -31t25 -34t6.5 -27z" />
    <glyph glyph-name="i" unicode="i" horiz-adv-x="301" 
d="M165 627q-18 -39 -42.5 -39.5t-43.5 25.5t-28.5 71.5t2.5 99.5q7 17 23.5 24.5t37.5 7t43 -6.5t39.5 -16t27 -21.5t6.5 -22.5q-15 -20 -23.5 -34.5t-14.5 -27.5t-12 -27t-15 -33zM4 143q-1 11 -2 37t-1.5 60.5t0 74.5t2.5 81t6 79.5t10 68.5q3 15 21 14.5t43 -10
t52.5 -25.5t49 -31.5t32.5 -27.5t3 -13q-11 -13 -20 -47t-14 -77t-6 -89.5t3.5 -85t14.5 -63t28 -23.5q14 1 29.5 22t30 52.5t25.5 69t16 70.5q1 4 5.5 6t9 1.5t8 -5t2.5 -11.5q-16 -95 -50.5 -171t-90.5 -121q-27 -22 -60 -28t-63 11.5t-53.5 61t-30.5 119.5z" />
    <glyph glyph-name="j" unicode="j" horiz-adv-x="287" 
d="M-7 143v44.5t0.5 67.5t1 80t2 81.5t4.5 73t7 54.5q3 15 21 14.5t43 -10t52.5 -25.5t49 -31.5t32.5 -27.5t3 -13q-8 -9 -12 -27.5t-5.5 -43.5t-2 -55.5t-1.5 -63.5q-2 -33 -1 -78.5t0 -99.5q22 12 41.5 27.5t35.5 38t28.5 54.5t19.5 77q2 10 7 14.5t9.5 3.5t7.5 -8t1 -19
q-8 -51 -22.5 -87.5t-34 -63t-43.5 -45.5t-51 -34q-2 -51 -5.5 -103t-11.5 -101t-20.5 -92t-31.5 -75.5t-45.5 -51t-62.5 -18.5q-36 -6 -71.5 7t-62 39.5t-39.5 64.5t-3.5 82.5t46.5 93t110 96.5q1 33 2 72.5t2 87.5zM135 627q-18 -39 -42.5 -39.5t-43.5 25.5t-28.5 71.5
t2.5 99.5q7 17 23.5 24.5t37.5 7t43 -6.5t39.5 -16t27 -21.5t6.5 -22.5q-15 -20 -23.5 -34.5t-14.5 -27.5t-12 -27t-15 -33zM-21 -258q1 3 2 24q1 18 2.5 56t3.5 110q-57 -43 -80.5 -83.5t-26 -73.5t11.5 -55.5t32 -29.5t35 5t20 47z" />
    <glyph glyph-name="k" unicode="k" horiz-adv-x="611" 
d="M3 100v40v79v106t0.5 121t2 124.5t4 117t5.5 96.5t8 65q3 16 21 15t43 -10.5t52.5 -25.5t49 -31.5t32.5 -27.5t3 -13q-7 -14 -11.5 -43.5t-7 -70t-3.5 -89t-1.5 -99.5t0 -102.5t0.5 -97.5q11 19 28 48.5t38.5 63.5t45 68.5t47.5 61.5t46.5 43.5t41.5 15.5q3 4 14.5 -9.5
t23 -32t19 -34.5t1.5 -16q-24 0 -48 -3t-49.5 -15.5t-52.5 -37t-58 -66.5q40 12 78.5 11t67.5 -10t45.5 -22t14.5 -25q-7 -35 -14 -76t-7 -75.5t11 -57t41 -20.5q14 1 29.5 20.5t29 49.5t24.5 67.5t17 74.5q3 10 8 13.5t9.5 2t7 -7.5t1.5 -15q-8 -39 -19 -79.5t-28 -78.5
t-40 -72.5t-54 -61.5q-27 -23 -59.5 -28.5t-63 11.5t-54 61t-30.5 120q-1 39 -4 71.5t-9 53.5t-15 26.5t-22 -9.5t-21 -27t-14 -22.5t-12 -19t-14 -16.5q1 -78 -4 -125t-9 -64q-7 -12 -23.5 -12.5t-37 7t-42.5 20t-40.5 27t-30.5 27t-12 20.5z" />
    <glyph glyph-name="l" unicode="l" horiz-adv-x="307" 
d="M332 280q0 6 4.5 10t10 4t9 -5t1.5 -18q-6 -39 -17 -80t-28.5 -79t-41 -72t-54.5 -61q-27 -23 -59.5 -28.5t-62.5 11.5t-53.5 61t-31.5 120q-2 38 -4 67.5t-2 70.5q0 13 0.5 51t1 90t2 112.5t3.5 119t5 110t7 85.5q2 16 20 15.5t42.5 -10.5t52.5 -26t49.5 -31.5t33 -27.5
t3.5 -13q-5 -5 -9 -36t-8 -76t-7.5 -98t-6 -102.5t-3.5 -89.5t-1 -58q0 -41 1 -82.5t5 -74.5t12.5 -53.5t24.5 -19.5q14 1 29.5 20.5t29.5 50.5t25 68.5t17 74.5z" />
    <glyph glyph-name="m" unicode="m" horiz-adv-x="920" 
d="M823 448q-5 -24 -10.5 -61.5t-9.5 -80.5t-5.5 -86t2.5 -78t14.5 -56t30.5 -20q14 1 29.5 20.5t29 50t24.5 68t17 74.5q-1 5 3.5 7t10 1.5t9.5 -4.5t3 -12q-6 -37 -17 -77t-28 -78t-41 -73.5t-55 -63.5q-26 -23 -59 -29t-63.5 11.5t-54 61.5t-30.5 120q-1 39 0.5 84t0 84
t-9 65.5t-26.5 28.5q-11 1 -23 -16t-23.5 -44.5t-22 -62.5t-18.5 -69v-121.5t2 -100.5q0 -16 -16.5 -16t-41.5 8.5t-53 23.5t-50.5 29.5t-34.5 25.5t-4 12q-1 26 1 61t4 72t3.5 73.5t-0.5 65t-8.5 46.5t-19.5 19q-9 0 -21 -21t-24.5 -53.5t-24.5 -72t-21 -76.5
q1 -59 1 -107.5t-4 -69.5q-7 -13 -23.5 -13t-37 7.5t-42.5 20t-40.5 27t-30.5 27.5t-12 20q0 11 -0.5 40t-0.5 68t0.5 85t2.5 91.5t6 87t10 71.5q3 15 21 14.5t43 -10t52.5 -25.5t49 -31.5t32.5 -27.5t3 -13q-13 -24 -19 -61.5t-9 -81.5q10 31 21 63t24 61.5t27.5 54.5
t31.5 43q21 23 44.5 28.5t46 0t43.5 -19t36.5 -29.5t25 -31t9.5 -23q0 -14 -0.5 -51t-0.5 -87q9 31 19.5 61.5t23.5 58.5t27.5 51.5t31.5 40.5q24 24 50.5 30.5t51.5 0.5t47 -20t38.5 -31t25 -34t6.5 -27z" />
    <glyph glyph-name="n" unicode="n" horiz-adv-x="618" 
d="M522 448q-5 -24 -10.5 -61.5t-9.5 -80.5t-5.5 -86t2.5 -78t14.5 -56t30.5 -20q14 1 29.5 20.5t29 50t24.5 68t17 74.5q1 6 6.5 7.5t11 0t8.5 -6t0 -9.5q-7 -39 -18.5 -79.5t-28 -78.5t-40 -72.5t-54.5 -61.5q-27 -23 -59.5 -28.5t-63 11.5t-54 61t-30.5 120q-1 39 0.5 88
t0.5 91t-8.5 69t-26.5 23q-12 -3 -26 -29t-27.5 -63.5t-25.5 -81.5t-20 -83q1 -49 1 -88t-4 -58q-7 -13 -23.5 -13t-37 7.5t-42.5 20t-40.5 27t-30.5 27.5t-12 20q0 11 -0.5 40t-0.5 68t0.5 85t2.5 91.5t6 87t10 71.5q3 15 21 14.5t43 -10t52.5 -25.5t49 -31.5t32.5 -27.5
t3 -13q-14 -28 -20.5 -73.5t-8.5 -97.5q9 34 20.5 70.5t25.5 70t30.5 62t36.5 47.5q24 24 50.5 30.5t51.5 0.5t47 -20t38.5 -31t25 -34t6.5 -27z" />
    <glyph glyph-name="o" unicode="o" horiz-adv-x="549" 
d="M586 277q8 12 15 7.5t3 -18.5q-3 -9 -13 -24.5t-27.5 -30t-42.5 -25t-58 -11.5q-9 -61 -35.5 -102.5t-60.5 -67.5t-71 -37t-67 -11q-63 1 -109.5 31.5t-76.5 79.5t-42.5 112t-8 128t26 128t61.5 113q8 10 19.5 11.5t25 -4.5t27 -17t26.5 -24q33 38 88 38q36 2 76.5 -15.5
t72 -58t48 -107t3.5 -163.5q30 -1 62 13t58 55zM296 194q-38 12 -66 32t-48 45q-4 -47 -3 -96t7 -89t18 -65.5t31 -24.5q27 2 41 51t20 147zM296 229q6 131 -6 195.5t-58 64.5q-15 0 -28 -8q14 -20 20 -36t-2 -21q-12 -8 -21 -36.5t-14 -68.5q15 -28 41.5 -51.5t67.5 -38.5z
" />
    <glyph glyph-name="p" unicode="p" horiz-adv-x="623" 
d="M681 299q12 -2 17.5 -12t-7.5 -16q-43 1 -82.5 -4.5t-74.5 -14.5q-4 -66 -24 -127.5t-54.5 -103.5t-82.5 -57t-109 13q-35 16 -44.5 40.5t1 53.5t37.5 60t66 60q2 35 1.5 69t-5 61t-12.5 43t-20 16q-15 -1 -29 -17t-26 -43t-22 -62.5t-17 -75.5q-1 -59 -1.5 -122t0 -124
t1 -117.5t0.5 -101.5t-1 -76t-3 -41q-7 -13 -23.5 -13t-37 7.5t-42.5 20t-40.5 27t-30.5 27.5t-12 20v44.5t-0.5 91t-1 123t-0.5 141t-0.5 145t-1 134.5t-0.5 109.5v71.5q0 16 18.5 15t45.5 -11t58 -26.5t55.5 -32.5t38 -28t5.5 -13q-8 -15 -12.5 -46.5t-8.5 -76.5
q13 43 29.5 83t35.5 70t40.5 48.5t46.5 20.5q46 2 80.5 -19t57 -58t34 -85.5t11.5 -100.5q36 8 73 11.5t73 -1.5zM260 37q10 -13 19 -9.5t16.5 19t13.5 40.5t10 55q-38 -34 -53.5 -63t-5.5 -42z" />
    <glyph glyph-name="q" unicode="q" 
d="M632 280q1 5 5 7t8.5 0.5t8 -5.5t2.5 -11q-6 -52 -21.5 -97t-37.5 -80.5t-49 -59.5t-57 -33v-5q55 -35 83 -77.5t35 -86.5t-3.5 -86t-32 -74.5t-51.5 -52t-62 -19.5q-28 0 -51.5 7.5t-42.5 28.5t-32.5 59t-21 98t-8 146t7.5 204q-11 -53 -41 -93.5t-77 -49.5
q-54 -11 -93 15t-63 73t-33 108t-2 122t30 114.5t62.5 84.5t96 33t129.5 -40l6 34q3 15 21 14.5t43 -10t52.5 -25.5t49 -31.5t32.5 -27.5t3 -13q-8 -9 -14.5 -28t-11.5 -44.5t-8.5 -56t-4.5 -61.5q-1 -16 -1 -40.5v-54t0.5 -63.5t1.5 -68q40 20 66 55t42 72t23.5 69.5
t10.5 48.5zM223 91q16 -10 31.5 4t27.5 37t19 48t6 38q0 18 0.5 48.5t2 67t3.5 75.5t5 73q-37 6 -62 -18.5t-39.5 -65.5t-20 -91t-4 -95.5t9.5 -79t21 -41.5zM515 -230q20 -27 35.5 -15.5t17.5 44.5t-15 79t-61 87q2 -36 4 -69t5 -59t6.5 -43.5t7.5 -23.5z" />
    <glyph glyph-name="r" unicode="r" horiz-adv-x="451" 
d="M156 143q-1 13 -2.5 45.5t-1.5 75.5t1 91.5t5 94.5q-17 -15 -37 -17.5t-46 5.5q0 -10 -3 -33t-7 -50t-8.5 -54t-8.5 -45q-3 -12 -8 -17.5t-10 -5.5t-8 6.5t0 19.5q2 8 5.5 28.5t7.5 47t8.5 56t9.5 55.5q-17 8 -45 31t-50.5 60t-32 86.5t10.5 109.5q4 9 20 6t37 -13.5
t43.5 -26t40.5 -31t27 -28.5t4 -18q-9 -9 -14.5 -31t-8.5 -47t-4 -46t-1 -28q26 -9 47 -5t36 33q2 13 4 24l4 22q3 15 21 14.5t43 -10t52.5 -25.5t49 -31.5t32.5 -27.5t3 -13q-11 -13 -20 -47t-14 -77t-6 -89.5t3.5 -85t14.5 -63t28 -23.5q14 1 30 22.5t30 53.5t24.5 69
t15.5 69q1 7 5.5 10t9.5 1.5t8.5 -6.5t1.5 -14q-9 -38 -20.5 -78t-27.5 -79t-38.5 -73.5t-53.5 -61.5q-27 -23 -59.5 -28.5t-63 11.5t-54 61t-30.5 120z" />
    <glyph glyph-name="s" unicode="s" horiz-adv-x="466" 
d="M238 481q-25 -10 -23.5 -27t18.5 -39.5t44 -49.5t54 -57.5t47.5 -64t24.5 -67.5q6 -59 -14 -103q35 32 62 82t39 125q2 10 7 14.5t9.5 3.5t7.5 -8t1 -19q-12 -75 -40 -133.5t-67 -99.5t-87 -63t-99 -23q-49 -2 -89 15.5t-69.5 46t-50 65t-31 73t-11 69.5t8.5 55.5t28 30
t48 -6.5q17 -9 37 -29t37.5 -45.5t30 -52.5t16 -48.5t-5 -33.5t-33.5 -8q-26 4 -39 -7.5t-12.5 -27t15 -28t43.5 -10.5q24 2 41 15.5t24 36.5t3 54.5t-21 68.5q-16 35 -37 62t-42 50t-40 43t-30.5 41t-14 44.5t9.5 52.5q16 38 47.5 59.5t69.5 27t78.5 -3.5t74 -32.5
t55.5 -61t23 -87.5q0 -15 -11.5 -21t-25.5 -5t-26 8.5t-12 20.5q0 11 -4.5 30.5t-14 36.5t-23 27.5t-31.5 3.5z" />
    <glyph glyph-name="t" unicode="t" horiz-adv-x="304" 
d="M-49 570q-4 2 -2.5 13.5t6 24t10 22.5t10.5 10l25 -4q0 13 0.5 31t1.5 36.5t1.5 36.5t1.5 31q1 16 19 15.5t43.5 -10.5t54 -26t51.5 -31.5t35 -27.5t4 -13q-2 -2 -3 -10.5t-2.5 -20t-2.5 -24t-2 -20.5q11 -2 22 -2.5t22 -1.5q5 0 8 -4.5t3.5 -10t-2 -10.5t-7.5 -6
q-21 -2 -51 0q-5 -42 -8 -95.5t-4.5 -109.5t-0.5 -109.5t6 -95.5t14 -67.5t24 -24.5q14 1 29.5 20.5t29.5 50.5t25.5 68.5t17.5 74.5q1 6 5.5 8.5t10 1.5t9 -6t1.5 -13q-9 -45 -21 -86t-28.5 -78t-39.5 -69t-54 -59q-27 -23 -58 -28.5t-60 12t-53 61t-36 119.5
q-8 53 -11 162t2 267z" />
    <glyph glyph-name="u" unicode="u" 
d="M632 280q0 7 4.5 10t10 2t9 -6t1.5 -15q-8 -43 -19 -84t-27.5 -78.5t-39.5 -70t-54 -59.5q-27 -23 -59.5 -28.5t-62.5 11.5t-53.5 61t-31.5 120q-11 -53 -41 -93.5t-77 -49.5q-48 -9 -84 10t-60.5 57t-37 89t-12.5 106v82.5t0.5 52t1 34t1.5 28t2.5 35.5t3.5 55
q0 10 16.5 9t40.5 -9.5t51 -22t50 -27t36.5 -25.5t10.5 -17q-6 -10 -9 -23t-5 -36t-3 -59t-3 -92q-2 -64 6.5 -100.5t24.5 -46.5t30.5 2.5t25.5 34t18 45.5t8 36q0 22 1 64t3 90t6 94.5t10 77.5q3 15 21 14.5t43 -10t52.5 -25.5t49 -31.5t32.5 -27.5t3 -13q-11 -13 -20 -47
t-14 -77t-6 -89.5t3.5 -85t14.5 -63t28 -23.5q14 1 29.5 20.5t29 50.5t24.5 68.5t17 74.5z" />
    <glyph glyph-name="v" unicode="v" horiz-adv-x="576" 
d="M608 329q3 4 8 4t9 -1.5t6.5 -5t0.5 -7.5q-12 -26 -28.5 -49.5t-39 -41t-52 -25.5t-68.5 -3q-17 -53 -43 -97t-55 -76.5t-59 -51.5t-54 -20q-58 -4 -100.5 27t-72 83t-49 117.5t-31.5 131.5t-19 125t-12 98q-3 18 12.5 18.5t40 -10t53 -28.5t52.5 -37t38.5 -35.5
t11.5 -24.5q-6 -14 -5 -51t6 -84t13 -97.5t16.5 -92.5t17 -69t14.5 -26t14.5 22.5t18.5 55t19.5 74t15.5 79.5q-35 20 -56 57.5t-29 81.5t-3.5 90t21.5 83.5t46.5 61t70.5 23.5q56 0 94.5 -23.5t55 -72t10.5 -121.5t-39 -172q15 -5 34 -4t39.5 10t40.5 29t36 55zM300 264
q3 19 9 50t12 66t10.5 69.5t3.5 61.5t-9 42.5t-26 11.5q-25 -6 -42.5 -25.5t-27 -47t-10 -60.5t7.5 -64.5t26 -59t46 -44.5z" />
    <glyph glyph-name="w" unicode="w" horiz-adv-x="860" 
d="M890 329q3 4 8 4t9 -1.5t6.5 -5t0.5 -7.5q-12 -26 -28.5 -49.5t-39 -41t-52 -25.5t-68.5 -3q-17 -53 -43 -97t-55 -76.5t-59 -51.5t-54 -20q-45 -3 -80 15.5t-62 51t-47 76.5t-35 94q-6 -41 -14 -76.5t-18.5 -61t-23.5 -40t-29 -14.5q-58 0 -96.5 30t-63.5 77.5
t-38.5 108t-20.5 121t-11 116t-9 94.5q-3 18 12 17.5t38.5 -12t51 -31t50.5 -39.5t37 -37.5t11 -24.5q-6 -14 -7 -48t2 -76.5t9 -88t14 -80.5t17 -54.5t17 -11.5q1 1 7 24t13 58.5t13.5 80t9.5 90.5q-12 66 -19 125t-12 98q-2 18 13 18.5t39.5 -10t53 -28.5t52.5 -37
t38.5 -35.5t11.5 -24.5q-6 -14 -5 -51t6 -84t13 -97.5t16.5 -92.5t17 -69t14.5 -26t14.5 22.5t18.5 55t19.5 74t15.5 79.5q-35 20 -56 57.5t-29 81.5t-3.5 90t21.5 83.5t46.5 61t70.5 23.5q56 0 94.5 -23.5t55 -72t10.5 -121.5t-39 -172q15 -5 34 -4t39.5 10t40.5 29t36 55z
M582 264q3 19 9 50t12 66t10.5 69.5t3.5 61.5t-9 42.5t-26 11.5q-25 -6 -42.5 -25.5t-27 -47t-10 -60.5t7.5 -64.5t26 -59t46 -44.5z" />
    <glyph glyph-name="x" unicode="x" horiz-adv-x="519" 
d="M425 549q4 2 13 -7t17 -21.5t13.5 -24.5t2.5 -15q-12 -3 -29.5 -18t-39.5 -38.5t-47 -54t-51 -65.5q13 -42 31 -85.5t37 -78t38.5 -55.5t36.5 -20q29 2 56 57t44 156q1 6 5.5 7.5t9.5 0t8.5 -6t2.5 -9.5q-8 -44 -19 -91t-27.5 -88t-39.5 -71.5t-55 -41.5
q-39 -14 -73.5 -7.5t-65.5 28t-57.5 56.5t-49.5 78q-23 -36 -43 -70.5t-35 -63.5q-4 -2 -10.5 -4t-12.5 -2t-9.5 1t-1.5 5q13 30 38 73.5t57 94.5q-30 63 -52.5 133t-39.5 136q-3 -26 -6.5 -53t-7.5 -51.5t-7.5 -44.5t-5.5 -32q-3 -12 -8 -17.5t-10 -5.5t-8 6.5t0 19.5
q1 6 3 24t4 43.5t3.5 56t3 61.5t2 59.5t0.5 49.5v1q-3 15 14 16.5t44.5 -6.5t59 -22.5t57 -29.5t40 -28.5t6.5 -19.5q-1 -8 2 -20t7.5 -27t9.5 -31t9 -32q23 34 44 64.5t39 56t31.5 44.5t21.5 30z" />
    <glyph glyph-name="y" unicode="y" 
d="M223 87q13 -8 25.5 -1t24.5 22.5t21.5 36.5t16.5 41v86.5t1.5 102t4.5 97.5t9 72q3 15 21 14.5t43 -10t52.5 -25.5t49 -31.5t32.5 -27.5t3 -13q-8 -9 -12 -27.5t-5.5 -43.5t-2 -55.5t-1.5 -63.5q-1 -32 -0.5 -75.5t-0.5 -94.5q43 29 78 73.5t50 115.5q1 5 6 7.5t10 1.5
t8.5 -5t1.5 -13q-9 -45 -24 -79t-35.5 -61t-44.5 -47.5t-51 -37.5q-2 -51 -5.5 -103.5t-11 -102t-20 -93.5t-32 -76.5t-46 -51.5t-62.5 -19q-36 -6 -71.5 7t-62.5 39.5t-40 64.5t-3.5 83t46.5 93.5t110 96.5l4 126q-20 -41 -50 -71.5t-68 -38.5q-48 -9 -84 10t-60.5 57
t-37 89t-12.5 106v82.5t0.5 52t1 34t1.5 28t2.5 35t3.5 55.5q0 11 16.5 9.5t40.5 -10t51 -22t50 -27t36.5 -25.5t10.5 -17q-6 -10 -9 -23t-5 -36t-3 -59t-3 -92q-2 -64 6.5 -107t24.5 -53zM297 -258q1 6 2 29q1 19 2.5 57t3.5 104q-57 -43 -81 -83.5t-26 -73.5t11.5 -55.5
t32 -29.5t35 4.5t20.5 47.5z" />
    <glyph glyph-name="z" unicode="z" horiz-adv-x="614" 
d="M272 164q16 16 46.5 21t64.5 -7.5t66 -45.5t52 -93q31 23 54.5 51t40.5 58.5t27 62.5t14 63q1 5 6 9t10.5 4.5t9.5 -2.5t3 -12q-5 -32 -14.5 -67.5t-27 -71.5t-45.5 -70t-68 -63l6 -29q6 -44 -0.5 -93.5t-25 -96.5t-50 -88t-74 -68t-96.5 -35.5t-118 9.5q-55 15 -74 55
t1 91.5t80 107.5t163 103q-2 34 -12 61.5t-29.5 41.5t-49 11t-70.5 -28q-4 -4 -19 9t-29 34t-22.5 44.5t0.5 41.5q11 22 18.5 35.5t15 26t17.5 29t26 44t39.5 70t58.5 108.5q-30 -19 -62 -24.5t-57.5 -5.5t-42.5 2t-17 -2q-9 -73 -24.5 -138t-31.5 -117q-8 -17 -19 -16.5
t-7 16.5q33 121 43 211t5 135q3 11 15.5 9.5t31.5 -8t43.5 -15t53 -11.5t60 2t63.5 26q7 6 26.5 4t44.5 -8.5t51 -16t46.5 -19t31.5 -17.5t5 -11q-33 -17 -71.5 -55t-74.5 -84t-65 -94t-43 -84zM166 -341q30 -5 57 16.5t47.5 58t34 82.5t17.5 91q-71 -39 -118 -80.5
t-68 -76.5t-14 -60t44 -31z" />
    <glyph glyph-name="zcaron" unicode="&#x17e;" horiz-adv-x="614" 
d="M272 164q16 16 46.5 21t64.5 -7.5t66 -45.5t52 -93q31 23 54.5 51t40.5 58.5t27 62.5t14 63q1 5 6 9t10.5 4.5t9.5 -2.5t3 -12q-5 -32 -14.5 -67.5t-27 -71.5t-45.5 -70t-68 -63l6 -29q6 -44 -0.5 -93.5t-25 -96.5t-50 -88t-74 -68t-96.5 -35.5t-118 9.5q-55 15 -74 55
t1 91.5t80 107.5t163 103q-2 34 -12 61.5t-29.5 41.5t-49 11t-70.5 -28q-4 -4 -19 9t-29 34t-22.5 44.5t0.5 41.5q11 22 18.5 35.5t15 26t17.5 29t26 44t39.5 70t58.5 108.5q-30 -19 -62 -24.5t-57.5 -5.5t-42.5 2t-17 -2q-9 -73 -24.5 -138t-31.5 -117q-8 -17 -19 -16.5
t-7 16.5q33 121 43 211t5 135q3 11 15.5 9.5t31.5 -8t43.5 -15t53 -11.5t60 2t63.5 26q7 6 26.5 4t44.5 -8.5t51 -16t46.5 -19t31.5 -17.5t5 -11q-33 -17 -71.5 -55t-74.5 -84t-65 -94t-43 -84zM166 -341q30 -5 57 16.5t47.5 58t34 82.5t17.5 91q-71 -39 -118 -80.5
t-68 -76.5t-14 -60t44 -31zM300 689q3 -5 -6 -6t-23.5 1t-31 6.5t-27.5 9.5q-9 4 -20.5 12.5t-33 26t-57 47.5t-92.5 78q-13 17 -4.5 24.5t29.5 7t50 -6.5t57 -16t51 -21.5t32 -22.5zM391 829q9 11 32 22.5t51 21.5t57 16t50 6.5t29.5 -7t-4.5 -24.5q-57 -48 -92.5 -78
t-57 -47.5t-33 -26t-20.5 -12.5q-11 -5 -27.5 -9.5t-31 -6.5t-23.5 -1t-6 6z" />
    <glyph glyph-name="Zcaron" unicode="&#x17d;" horiz-adv-x="563" 
d="M19 576q-14 6 -15.5 26t4 39.5t15.5 31.5t21 3q19 -18 50.5 -27.5t68 -12t76 0.5t74.5 10t63.5 17.5t44.5 22.5q12 9 37 0.5t50 -24.5t41.5 -34t11.5 -28q-23 -12 -55 -47.5t-68.5 -87t-74 -114.5t-72 -129t-62.5 -131t-44 -120q30 24 65 43t71 31t71.5 15.5t65.5 -3.5
t52.5 -26t33.5 -53q3 -8 -7.5 -20.5t-27 -25.5t-36.5 -24t-37 -17t-27.5 -4.5t-7.5 13.5q2 11 -3.5 28t-18.5 32.5t-33 25t-47.5 6t-62.5 -25t-76 -67.5q-4 -5 -18.5 -3t-33 9t-39 18.5t-36.5 25.5t-25.5 29t-6.5 31q17 89 45.5 168.5t66 151t82 136t94.5 123.5
q-23 -8 -59 -14t-75 -9t-75.5 -1t-60.5 11zM274 810q3 -5 -6 -6t-23.5 1t-31 6.5t-27.5 9.5q-9 4 -20.5 12.5t-33 26t-57 47.5t-92.5 78q-13 17 -4.5 24.5t29.5 7t50 -6.5t57 -16t51 -21.5t32 -22.5zM365 950q9 11 32 22.5t51 21.5t57 16t50 6.5t29.5 -7t-4.5 -24.5
q-57 -48 -92.5 -78t-57 -47.5t-33 -26t-20.5 -12.5q-11 -5 -27.5 -9.5t-31 -6.5t-23.5 -1t-6 6z" />
    <glyph glyph-name="Ydieresis" unicode="&#x178;" horiz-adv-x="590" 
d="M200 600q-3 -144 -7 -254t-5 -185t3 -115.5t18 -45.5q19 -7 40.5 4t44.5 45.5t46.5 96t46.5 156.5v389q-2 11 12.5 11t36.5 -7t49 -19t50 -25t38.5 -25.5t16.5 -19.5q0 -19 -0.5 -67.5t-0.5 -111t-0.5 -131.5t-0.5 -130t-0.5 -105.5t-0.5 -58.5q-2 -99 -31.5 -174
t-82 -125.5t-126.5 -76.5t-164 -26q-20 0 -26.5 2t-4.5 5.5t9 7.5t14 7q9 4 27.5 16.5t41 34t46.5 52.5t44.5 73.5t34.5 96t16 119.5q0 16 0.5 58t0.5 99q-21 -76 -45 -125t-48.5 -78t-48.5 -41.5t-44 -15t-35.5 1t-22.5 6.5q-58 22 -87 74t-41 143.5t-12.5 227.5t-1.5 326
q0 8 15.5 7t38.5 -7.5t49.5 -17t48.5 -23t36 -25.5t12 -24zM210 744q-18 -39 -42.5 -39.5t-43.5 25.5t-28.5 71.5t2.5 99.5q7 17 23.5 24.5t37.5 7t43 -6.5t39.5 -16t27 -21.5t6.5 -22.5q-15 -20 -23.5 -34.5t-14.5 -27.5t-12 -27t-15 -33zM439 744q-18 -39 -42.5 -39.5
t-43.5 25.5t-28.5 71.5t2.5 99.5q7 17 23.5 24.5t37.5 7t43 -6.5t39.5 -16t27 -21.5t6.5 -22.5q-15 -20 -23.5 -34.5t-14.5 -27.5t-12 -27t-15 -33z" />
    <glyph glyph-name="scaron" unicode="&#x161;" horiz-adv-x="466" 
d="M238 481q-25 -10 -23.5 -27t18.5 -39.5t44 -49.5t54 -57.5t47.5 -64t24.5 -67.5q6 -59 -14 -103q35 32 62 82t39 125q2 10 7 14.5t9.5 3.5t7.5 -8t1 -19q-12 -75 -40 -133.5t-67 -99.5t-87 -63t-99 -23q-49 -2 -89 15.5t-69.5 46t-50 65t-31 73t-11 69.5t8.5 55.5t28 30
t48 -6.5q17 -9 37 -29t37.5 -45.5t30 -52.5t16 -48.5t-5 -33.5t-33.5 -8q-26 4 -39 -7.5t-12.5 -27t15 -28t43.5 -10.5q24 2 41 15.5t24 36.5t3 54.5t-21 68.5q-16 35 -37 62t-42 50t-40 43t-30.5 41t-14 44.5t9.5 52.5q16 38 47.5 59.5t69.5 27t78.5 -3.5t74 -32.5
t55.5 -61t23 -87.5q0 -15 -11.5 -21t-25.5 -5t-26 8.5t-12 20.5q0 11 -4.5 30.5t-14 36.5t-23 27.5t-31.5 3.5zM226 689q3 -5 -6 -6t-23.5 1t-31 6.5t-27.5 9.5q-9 4 -20.5 12.5t-33 26t-57 47.5t-92.5 78q-13 17 -4.5 24.5t29.5 7t50 -6.5t57 -16t51 -21.5t32 -22.5z
M317 829q9 11 32 22.5t51 21.5t57 16t50 6.5t29.5 -7t-4.5 -24.5q-57 -48 -92.5 -78t-57 -47.5t-33 -26t-20.5 -12.5q-11 -5 -27.5 -9.5t-31 -6.5t-23.5 -1t-6 6z" />
    <glyph glyph-name="Scaron" unicode="&#x160;" horiz-adv-x="479" 
d="M394 665q38 -23 55.5 -43.5t20 -41.5t-6.5 -42t-24.5 -43.5t-34 -47.5t-34.5 -53q-18 -33 -32 -37t-18 19.5t3.5 72t32.5 119.5q5 14 7.5 14t3 -6.5t-1 -16t-4.5 -14.5q-15 -39 -19 -64.5t-2 -38.5t7.5 -14t10.5 9q16 31 34 59.5t27 53.5t5 45t-32 33q-14 7 -32 -11
t-35.5 -49t-32.5 -70.5t-23 -76.5t-7.5 -67t14.5 -41q19 -16 43 -23t48 -13.5t46 -15.5t38 -27.5t23.5 -50t1.5 -83.5q-4 -56 -31 -96.5t-68.5 -65t-91 -32.5t-98 1t-90.5 34.5t-67 68.5t-29 103.5t24 139.5q6 18 24 21t40.5 -3.5t46.5 -19.5t43.5 -28.5t31 -30.5t8.5 -24
q-24 -66 -29 -109.5t0.5 -65.5t19.5 -25t28 11t25.5 43.5t12.5 71.5q1 50 -3 89t-20 67.5t-45.5 47t-78.5 28.5q-23 4 -35.5 28t-15 59t4.5 76t23.5 79.5t43 70.5t62.5 48.5t81.5 13t100.5 -35.5zM232 810q3 -5 -6 -6t-23.5 1t-31 6.5t-27.5 9.5q-9 4 -20.5 12.5t-33 26
t-57 47.5t-92.5 78q-13 17 -4.5 24.5t29.5 7t50 -6.5t57 -16t51 -21.5t32 -22.5zM323 950q9 11 32 22.5t51 21.5t57 16t50 6.5t29.5 -7t-4.5 -24.5q-57 -48 -92.5 -78t-57 -47.5t-33 -26t-20.5 -12.5q-11 -5 -27.5 -9.5t-31 -6.5t-23.5 -1t-6 6z" />
    <glyph glyph-name="Acircumflex" unicode="&#xc2;" horiz-adv-x="457" 
d="M-8 261q-4 2 -1.5 11t7.5 18.5t11 17.5t11 8q11 -7 22 -11.5t23 -8.5q16 61 29 122.5t22 114.5t14.5 93.5t5.5 60.5q-2 7 14.5 6.5t42 -7t55.5 -17t56 -23t43 -24.5t17 -22q-4 -123 0 -231t15 -196t27.5 -155t37.5 -107q6 -11 9 -15.5t3 -5.5t-3 0.5t-10 1.5
q-65 -4 -110 13.5t-75.5 61.5t-48 116t-25.5 176q-44 -10 -89 -11q-21 -74 -46.5 -143t-56 -118.5t-65.5 -72t-75 -3.5q-12 6 -15 23t1 33t13.5 25t22.5 -1q25 -20 49 -6.5t46.5 51t43.5 93.5t39 120q-34 3 -60 12zM174 633q-2 -15 -7 -49t-13.5 -80.5t-20.5 -102.5
t-27 -114q38 -5 76 0q-5 72 -6.5 157.5t-1.5 188.5zM145 900q-9 -11 -32 -22.5t-51 -21.5t-57 -16t-50 -6.5t-29.5 7t4.5 24.5q57 48 92.5 78t57 47.5t33 26t20.5 12.5q11 5 27.5 9.5t31 6.5t23.5 1t6 -6zM236 1040q-3 5 6 6t23.5 -1t31 -6.5t27.5 -9.5q9 -4 20.5 -12.5
t33 -26t57 -47.5t92.5 -78q13 -17 4.5 -24.5t-29.5 -7t-50 6.5t-57 16t-51 21.5t-32 22.5z" />
    <glyph glyph-name="Aacute" unicode="&#xc1;" horiz-adv-x="457" 
d="M-8 261q-4 2 -1.5 11t7.5 18.5t11 17.5t11 8q11 -7 22 -11.5t23 -8.5q16 61 29 122.5t22 114.5t14.5 93.5t5.5 60.5q-2 7 14.5 6.5t42 -7t55.5 -17t56 -23t43 -24.5t17 -22q-4 -123 0 -231t15 -196t27.5 -155t37.5 -107q6 -11 9 -15.5t3 -5.5t-3 0.5t-10 1.5
q-65 -4 -110 13.5t-75.5 61.5t-48 116t-25.5 176q-44 -10 -89 -11q-21 -74 -46.5 -143t-56 -118.5t-65.5 -72t-75 -3.5q-12 6 -15 23t1 33t13.5 25t22.5 -1q25 -20 49 -6.5t46.5 51t43.5 93.5t39 120q-34 3 -60 12zM174 633q-2 -15 -7 -49t-13.5 -80.5t-20.5 -102.5
t-27 -114q38 -5 76 0q-5 72 -6.5 157.5t-1.5 188.5zM137 950q9 11 32 22.5t51 21.5t57 16t50 6.5t29.5 -7t-4.5 -24.5q-57 -48 -92.5 -78t-57 -47.5t-33 -26t-20.5 -12.5q-11 -5 -27.5 -9.5t-31 -6.5t-23.5 -1t-6 6z" />
    <glyph glyph-name="Agrave" unicode="&#xc0;" horiz-adv-x="457" 
d="M-8 261q-4 2 -1.5 11t7.5 18.5t11 17.5t11 8q11 -7 22 -11.5t23 -8.5q16 61 29 122.5t22 114.5t14.5 93.5t5.5 60.5q-2 7 14.5 6.5t42 -7t55.5 -17t56 -23t43 -24.5t17 -22q-4 -123 0 -231t15 -196t27.5 -155t37.5 -107q6 -11 9 -15.5t3 -5.5t-3 0.5t-10 1.5
q-65 -4 -110 13.5t-75.5 61.5t-48 116t-25.5 176q-44 -10 -89 -11q-21 -74 -46.5 -143t-56 -118.5t-65.5 -72t-75 -3.5q-12 6 -15 23t1 33t13.5 25t22.5 -1q25 -20 49 -6.5t46.5 51t43.5 93.5t39 120q-34 3 -60 12zM174 633q-2 -15 -7 -49t-13.5 -80.5t-20.5 -102.5
t-27 -114q38 -5 76 0q-5 72 -6.5 157.5t-1.5 188.5zM395 810q3 -5 -6 -6t-23.5 1t-31 6.5t-27.5 9.5q-9 4 -20.5 12.5t-33 26t-57 47.5t-92.5 78q-13 17 -4.5 24.5t29.5 7t50 -6.5t57 -16t51 -21.5t32 -22.5z" />
    <glyph glyph-name="Atilde" unicode="&#xc3;" horiz-adv-x="457" 
d="M-8 261q-4 2 -1.5 11t7.5 18.5t11 17.5t11 8q11 -7 22 -11.5t23 -8.5q16 61 29 122.5t22 114.5t14.5 93.5t5.5 60.5q-2 7 14.5 6.5t42 -7t55.5 -17t56 -23t43 -24.5t17 -22q-4 -123 0 -231t15 -196t27.5 -155t37.5 -107q6 -11 9 -15.5t3 -5.5t-3 0.5t-10 1.5
q-65 -4 -110 13.5t-75.5 61.5t-48 116t-25.5 176q-44 -10 -89 -11q-21 -74 -46.5 -143t-56 -118.5t-65.5 -72t-75 -3.5q-12 6 -15 23t1 33t13.5 25t22.5 -1q25 -20 49 -6.5t46.5 51t43.5 93.5t39 120q-34 3 -60 12zM174 633q-2 -15 -7 -49t-13.5 -80.5t-20.5 -102.5
t-27 -114q38 -5 76 0q-5 72 -6.5 157.5t-1.5 188.5zM369 945q0 6 6 3.5t12.5 -9t12.5 -15.5t6 -16q0 -46 -13 -70.5t-35.5 -35t-51 -9.5t-58.5 7.5t-58.5 14.5t-51 11.5t-36 -0.5t-13.5 -22q0 -7 -6 -4t-13.5 11.5t-13 19.5t-5.5 19q1 43 15 65.5t36.5 31t51 6t58 -9.5
t58 -15t50.5 -11t35.5 2.5t13.5 25.5z" />
    <glyph glyph-name="Adieresis" unicode="&#xc4;" horiz-adv-x="457" 
d="M-8 261q-4 2 -1.5 11t7.5 18.5t11 17.5t11 8q11 -7 22 -11.5t23 -8.5q16 61 29 122.5t22 114.5t14.5 93.5t5.5 60.5q-2 7 14.5 6.5t42 -7t55.5 -17t56 -23t43 -24.5t17 -22q-4 -123 0 -231t15 -196t27.5 -155t37.5 -107q6 -11 9 -15.5t3 -5.5t-3 0.5t-10 1.5
q-65 -4 -110 13.5t-75.5 61.5t-48 116t-25.5 176q-44 -10 -89 -11q-21 -74 -46.5 -143t-56 -118.5t-65.5 -72t-75 -3.5q-12 6 -15 23t1 33t13.5 25t22.5 -1q25 -20 49 -6.5t46.5 51t43.5 93.5t39 120q-34 3 -60 12zM174 633q-2 -15 -7 -49t-13.5 -80.5t-20.5 -102.5
t-27 -114q38 -5 76 0q-5 72 -6.5 157.5t-1.5 188.5zM146 744q-18 -39 -42.5 -39.5t-43.5 25.5t-28.5 71.5t2.5 99.5q7 17 23.5 24.5t37.5 7t43 -6.5t39.5 -16t27 -21.5t6.5 -22.5q-15 -20 -23.5 -34.5t-14.5 -27.5t-12 -27t-15 -33zM375 744q-18 -39 -42.5 -39.5t-43.5 25.5
t-28.5 71.5t2.5 99.5q7 17 23.5 24.5t37.5 7t43 -6.5t39.5 -16t27 -21.5t6.5 -22.5q-15 -20 -23.5 -34.5t-14.5 -27.5t-12 -27t-15 -33z" />
    <glyph glyph-name="Aring" unicode="&#xc5;" horiz-adv-x="457" 
d="M91 803q0 29 11 55t30 45t44.5 30t54.5 11t55 -11t45 -30t30 -45t11 -55q0 -52 -32.5 -90t-81.5 -48q20 -8 39 -16.5t34 -17t24 -16.5t9 -15q-4 -123 0 -231t15 -196t27.5 -155t37.5 -107q6 -11 9 -15.5t3 -5.5t-3 0.5t-10 1.5q-65 -4 -110 13.5t-75.5 61.5t-48 116
t-25.5 176q-44 -10 -89 -11q-21 -74 -46.5 -143t-56 -118.5t-65.5 -72t-75 -3.5q-12 6 -15 23t1 33t13.5 25t22.5 -1q25 -20 49 -6.5t46.5 51t43.5 93.5t39 120q-34 3 -60 12q-4 2 -1.5 11t7.5 18.5t11 17.5t11 8q11 -7 22 -11.5t23 -8.5q16 61 29 122.5t22 114.5t14.5 93.5
t5.5 60.5q-2 6 7 6q-24 20 -38 48t-14 62zM191 801q0 -18 2 -36.5t6.5 -33.5t12.5 -24.5t19 -9.5t18.5 9.5t11.5 24.5t5.5 33.5t1.5 36.5t-1.5 37.5t-5.5 35.5t-11.5 26t-18.5 10t-19 -10t-12.5 -26t-6.5 -35.5t-2 -37.5zM174 633q-2 -15 -7 -49t-13.5 -80.5t-20.5 -102.5
t-27 -114q38 -5 76 0q-5 72 -6.5 157.5t-1.5 188.5z" />
    <glyph glyph-name="Egrave" unicode="&#xc8;" horiz-adv-x="504" 
d="M319 470q-16 -39 -19 -59t1.5 -26.5t12.5 -2t13 14.5q17 31 31.5 64.5t20.5 63.5t-0.5 53.5t-32.5 32.5q-18 7 -40 -10t-41.5 -47t-33.5 -68t-16.5 -73t9.5 -62t45 -36q6 -3 11.5 -10t8 -14t-0.5 -11.5t-14 -1.5q-4 1 -9.5 5t-11.5 8t-11 6.5t-7 0.5q-16 -14 -25 -41.5
t-11.5 -60.5t3 -68t20 -63.5t38.5 -46.5t58 -18q61 0 98.5 70.5t54.5 193.5q-2 12 3 17.5t12 4t12.5 -9.5t4.5 -23q-2 -31 -7 -69.5t-16.5 -79t-31 -79t-49 -67.5t-70.5 -45t-97 -13q-78 5 -129 40t-76.5 85t-26.5 106t20.5 102.5t64.5 75t106 23.5q-72 31 -106 78t-37.5 96
t18.5 93t62 69.5t94.5 25.5t115.5 -39q47 -30 67 -57t23 -51.5t-8 -48t-26.5 -47t-31.5 -47.5t-24 -50q-11 -37 -26 -46.5t-23.5 8t-5 62t30.5 115.5q5 14 7.5 14t2.5 -6.5t-1 -16t-4 -14.5zM419 810q3 -5 -6 -6t-23.5 1t-31 6.5t-27.5 9.5q-9 4 -20.5 12.5t-33 26t-57 47.5
t-92.5 78q-13 17 -4.5 24.5t29.5 7t50 -6.5t57 -16t51 -21.5t32 -22.5z" />
    <glyph glyph-name="Eacute" unicode="&#xc9;" horiz-adv-x="504" 
d="M319 470q-16 -39 -19 -59t1.5 -26.5t12.5 -2t13 14.5q17 31 31.5 64.5t20.5 63.5t-0.5 53.5t-32.5 32.5q-18 7 -40 -10t-41.5 -47t-33.5 -68t-16.5 -73t9.5 -62t45 -36q6 -3 11.5 -10t8 -14t-0.5 -11.5t-14 -1.5q-4 1 -9.5 5t-11.5 8t-11 6.5t-7 0.5q-16 -14 -25 -41.5
t-11.5 -60.5t3 -68t20 -63.5t38.5 -46.5t58 -18q61 0 98.5 70.5t54.5 193.5q-2 12 3 17.5t12 4t12.5 -9.5t4.5 -23q-2 -31 -7 -69.5t-16.5 -79t-31 -79t-49 -67.5t-70.5 -45t-97 -13q-78 5 -129 40t-76.5 85t-26.5 106t20.5 102.5t64.5 75t106 23.5q-72 31 -106 78t-37.5 96
t18.5 93t62 69.5t94.5 25.5t115.5 -39q47 -30 67 -57t23 -51.5t-8 -48t-26.5 -47t-31.5 -47.5t-24 -50q-11 -37 -26 -46.5t-23.5 8t-5 62t30.5 115.5q5 14 7.5 14t2.5 -6.5t-1 -16t-4 -14.5zM161 950q9 11 32 22.5t51 21.5t57 16t50 6.5t29.5 -7t-4.5 -24.5
q-57 -48 -92.5 -78t-57 -47.5t-33 -26t-20.5 -12.5q-11 -5 -27.5 -9.5t-31 -6.5t-23.5 -1t-6 6z" />
    <glyph glyph-name="Ecircumflex" unicode="&#xca;" horiz-adv-x="504" 
d="M319 470q-16 -39 -19 -59t1.5 -26.5t12.5 -2t13 14.5q17 31 31.5 64.5t20.5 63.5t-0.5 53.5t-32.5 32.5q-18 7 -40 -10t-41.5 -47t-33.5 -68t-16.5 -73t9.5 -62t45 -36q6 -3 11.5 -10t8 -14t-0.5 -11.5t-14 -1.5q-4 1 -9.5 5t-11.5 8t-11 6.5t-7 0.5q-16 -14 -25 -41.5
t-11.5 -60.5t3 -68t20 -63.5t38.5 -46.5t58 -18q61 0 98.5 70.5t54.5 193.5q-2 12 3 17.5t12 4t12.5 -9.5t4.5 -23q-2 -31 -7 -69.5t-16.5 -79t-31 -79t-49 -67.5t-70.5 -45t-97 -13q-78 5 -129 40t-76.5 85t-26.5 106t20.5 102.5t64.5 75t106 23.5q-72 31 -106 78t-37.5 96
t18.5 93t62 69.5t94.5 25.5t115.5 -39q47 -30 67 -57t23 -51.5t-8 -48t-26.5 -47t-31.5 -47.5t-24 -50q-11 -37 -26 -46.5t-23.5 8t-5 62t30.5 115.5q5 14 7.5 14t2.5 -6.5t-1 -16t-4 -14.5zM169 900q-9 -11 -32 -22.5t-51 -21.5t-57 -16t-50 -6.5t-29.5 7t4.5 24.5
q57 48 92.5 78t57 47.5t33 26t20.5 12.5q11 5 27.5 9.5t31 6.5t23.5 1t6 -6zM260 1040q-3 5 6 6t23.5 -1t31 -6.5t27.5 -9.5q9 -4 20.5 -12.5t33 -26t57 -47.5t92.5 -78q13 -17 4.5 -24.5t-29.5 -7t-50 6.5t-57 16t-51 21.5t-32 22.5z" />
    <glyph glyph-name="Edieresis" unicode="&#xcb;" horiz-adv-x="504" 
d="M319 470q-16 -39 -19 -59t1.5 -26.5t12.5 -2t13 14.5q17 31 31.5 64.5t20.5 63.5t-0.5 53.5t-32.5 32.5q-18 7 -40 -10t-41.5 -47t-33.5 -68t-16.5 -73t9.5 -62t45 -36q6 -3 11.5 -10t8 -14t-0.5 -11.5t-14 -1.5q-4 1 -9.5 5t-11.5 8t-11 6.5t-7 0.5q-16 -14 -25 -41.5
t-11.5 -60.5t3 -68t20 -63.5t38.5 -46.5t58 -18q61 0 98.5 70.5t54.5 193.5q-2 12 3 17.5t12 4t12.5 -9.5t4.5 -23q-2 -31 -7 -69.5t-16.5 -79t-31 -79t-49 -67.5t-70.5 -45t-97 -13q-78 5 -129 40t-76.5 85t-26.5 106t20.5 102.5t64.5 75t106 23.5q-72 31 -106 78t-37.5 96
t18.5 93t62 69.5t94.5 25.5t115.5 -39q47 -30 67 -57t23 -51.5t-8 -48t-26.5 -47t-31.5 -47.5t-24 -50q-11 -37 -26 -46.5t-23.5 8t-5 62t30.5 115.5q5 14 7.5 14t2.5 -6.5t-1 -16t-4 -14.5zM169 744q-18 -39 -42.5 -39.5t-43.5 25.5t-28.5 71.5t2.5 99.5q7 17 23.5 24.5
t37.5 7t43 -6.5t39.5 -16t27 -21.5t6.5 -22.5q-15 -20 -23.5 -34.5t-14.5 -27.5t-12 -27t-15 -33zM398 744q-18 -39 -42.5 -39.5t-43.5 25.5t-28.5 71.5t2.5 99.5q7 17 23.5 24.5t37.5 7t43 -6.5t39.5 -16t27 -21.5t6.5 -22.5q-15 -20 -23.5 -34.5t-14.5 -27.5t-12 -27
t-15 -33z" />
    <glyph glyph-name="Igrave" unicode="&#xcc;" horiz-adv-x="308" 
d="M104 685q-2 11 12.5 11t36.5 -7t49 -19t50 -25t38.5 -25.5t16.5 -19.5v-222.5t-6.5 -177.5t-22 -134.5t-46 -93.5t-79 -54.5t-121.5 -17.5q-20 0 -26.5 2t-4.5 5.5t9 7.5t14 7q11 5 22.5 14.5t21.5 35.5t18.5 74.5t13.5 131.5t6 206.5t-2 300.5zM321 810q3 -5 -6 -6
t-23.5 1t-31 6.5t-27.5 9.5q-9 4 -20.5 12.5t-33 26t-57 47.5t-92.5 78q-13 17 -4.5 24.5t29.5 7t50 -6.5t57 -16t51 -21.5t32 -22.5z" />
    <glyph glyph-name="Iacute" unicode="&#xcd;" horiz-adv-x="308" 
d="M104 685q-2 11 12.5 11t36.5 -7t49 -19t50 -25t38.5 -25.5t16.5 -19.5v-222.5t-6.5 -177.5t-22 -134.5t-46 -93.5t-79 -54.5t-121.5 -17.5q-20 0 -26.5 2t-4.5 5.5t9 7.5t14 7q11 5 22.5 14.5t21.5 35.5t18.5 74.5t13.5 131.5t6 206.5t-2 300.5zM63 950q9 11 32 22.5
t51 21.5t57 16t50 6.5t29.5 -7t-4.5 -24.5q-57 -48 -92.5 -78t-57 -47.5t-33 -26t-20.5 -12.5q-11 -5 -27.5 -9.5t-31 -6.5t-23.5 -1t-6 6z" />
    <glyph glyph-name="Icircumflex" unicode="&#xce;" horiz-adv-x="308" 
d="M104 685q-2 11 12.5 11t36.5 -7t49 -19t50 -25t38.5 -25.5t16.5 -19.5v-222.5t-6.5 -177.5t-22 -134.5t-46 -93.5t-79 -54.5t-121.5 -17.5q-20 0 -26.5 2t-4.5 5.5t9 7.5t14 7q11 5 22.5 14.5t21.5 35.5t18.5 74.5t13.5 131.5t6 206.5t-2 300.5zM71 900q-9 -11 -32 -22.5
t-51 -21.5t-57 -16t-50 -6.5t-29.5 7t4.5 24.5q57 48 92.5 78t57 47.5t33 26t20.5 12.5q11 5 27.5 9.5t31 6.5t23.5 1t6 -6zM162 1040q-3 5 6 6t23.5 -1t31 -6.5t27.5 -9.5q9 -4 20.5 -12.5t33 -26t57 -47.5t92.5 -78q13 -17 4.5 -24.5t-29.5 -7t-50 6.5t-57 16t-51 21.5
t-32 22.5z" />
    <glyph glyph-name="Idieresis" unicode="&#xcf;" horiz-adv-x="308" 
d="M104 685q-2 11 12.5 11t36.5 -7t49 -19t50 -25t38.5 -25.5t16.5 -19.5v-222.5t-6.5 -177.5t-22 -134.5t-46 -93.5t-79 -54.5t-121.5 -17.5q-20 0 -26.5 2t-4.5 5.5t9 7.5t14 7q11 5 22.5 14.5t21.5 35.5t18.5 74.5t13.5 131.5t6 206.5t-2 300.5zM72 744
q-18 -39 -42.5 -39.5t-43.5 25.5t-28.5 71.5t2.5 99.5q7 17 23.5 24.5t37.5 7t43 -6.5t39.5 -16t27 -21.5t6.5 -22.5q-15 -20 -23.5 -34.5t-14.5 -27.5t-12 -27t-15 -33zM301 744q-18 -39 -42.5 -39.5t-43.5 25.5t-28.5 71.5t2.5 99.5q7 17 23.5 24.5t37.5 7t43 -6.5
t39.5 -16t27 -21.5t6.5 -22.5q-15 -20 -23.5 -34.5t-14.5 -27.5t-12 -27t-15 -33z" />
    <glyph glyph-name="Ntilde" unicode="&#xd1;" horiz-adv-x="627" 
d="M626 600q-3 -155 -5.5 -263t-3 -184t1 -127.5t4.5 -92.5q0 -5 -13 -5.5t-33 2t-44 9t-44.5 15.5t-35 20.5t-15.5 24.5l-3 27q-25 72 -62 161.5t-71 194.5q0 -126 -8.5 -217t-36 -150t-81 -87t-144.5 -28q-20 0 -26.5 2t-4.5 5.5t9 7.5t14 7q11 5 22 14.5t21 35.5t17 74.5
t12 131.5t5.5 206.5t-2.5 300.5q-2 11 12.5 11t36.5 -7t49 -19t50 -25t38.5 -25.5t16.5 -19.5v-25q10 -48 24.5 -96.5t31.5 -96t35 -94t35 -89.5q0 34 -0.5 79.5t-0.5 105.5t-0.5 135.5t-0.5 170.5q0 8 15.5 7t38.5 -7.5t49.5 -17t48.5 -23t36 -25.5t12 -24zM453 945
q0 6 6 3.5t12.5 -9t12.5 -15.5t6 -16q0 -46 -13 -70.5t-35.5 -35t-51 -9.5t-58.5 7.5t-58.5 14.5t-51 11.5t-36 -0.5t-13.5 -22q0 -7 -6 -4t-13.5 11.5t-13 19.5t-5.5 19q1 43 15 65.5t36.5 31t51 6t58 -9.5t58 -15t50.5 -11t35.5 2.5t13.5 25.5z" />
    <glyph glyph-name="Ograve" unicode="&#xd2;" horiz-adv-x="517" 
d="M368 661q44 -31 75 -79t48.5 -106.5t22.5 -123t-3 -127t-28.5 -120t-54 -102t-80 -72.5t-104.5 -31t-100.5 20t-71.5 64.5t-45.5 97t-22.5 116.5t-2.5 123.5t14.5 118t28 100t39 69.5q7 8 18 7t31 -15q9 43 36 65.5t62 28.5t72 -3t66 -31zM245 -46q18 0 32.5 23.5t25 62
t17 89.5t9 106.5t0 112.5t-10.5 107t-21 90.5t-32 63.5q-8 10 -21.5 18t-28 7.5t-27 -12.5t-19.5 -42q11 -6 25 -17t25.5 -24.5t17.5 -27.5t1 -26q-12 -30 -23.5 -81t-19 -110t-9.5 -119.5t2.5 -109.5t18 -80t38.5 -31zM425 810q3 -5 -6 -6t-23.5 1t-31 6.5t-27.5 9.5
q-9 4 -20.5 12.5t-33 26t-57 47.5t-92.5 78q-13 17 -4.5 24.5t29.5 7t50 -6.5t57 -16t51 -21.5t32 -22.5z" />
    <glyph glyph-name="Oacute" unicode="&#xd3;" horiz-adv-x="517" 
d="M368 661q44 -31 75 -79t48.5 -106.5t22.5 -123t-3 -127t-28.5 -120t-54 -102t-80 -72.5t-104.5 -31t-100.5 20t-71.5 64.5t-45.5 97t-22.5 116.5t-2.5 123.5t14.5 118t28 100t39 69.5q7 8 18 7t31 -15q9 43 36 65.5t62 28.5t72 -3t66 -31zM245 -46q18 0 32.5 23.5t25 62
t17 89.5t9 106.5t0 112.5t-10.5 107t-21 90.5t-32 63.5q-8 10 -21.5 18t-28 7.5t-27 -12.5t-19.5 -42q11 -6 25 -17t25.5 -24.5t17.5 -27.5t1 -26q-12 -30 -23.5 -81t-19 -110t-9.5 -119.5t2.5 -109.5t18 -80t38.5 -31zM167 950q9 11 32 22.5t51 21.5t57 16t50 6.5t29.5 -7
t-4.5 -24.5q-57 -48 -92.5 -78t-57 -47.5t-33 -26t-20.5 -12.5q-11 -5 -27.5 -9.5t-31 -6.5t-23.5 -1t-6 6z" />
    <glyph glyph-name="Ocircumflex" unicode="&#xd4;" horiz-adv-x="517" 
d="M368 661q44 -31 75 -79t48.5 -106.5t22.5 -123t-3 -127t-28.5 -120t-54 -102t-80 -72.5t-104.5 -31t-100.5 20t-71.5 64.5t-45.5 97t-22.5 116.5t-2.5 123.5t14.5 118t28 100t39 69.5q7 8 18 7t31 -15q9 43 36 65.5t62 28.5t72 -3t66 -31zM245 -46q18 0 32.5 23.5t25 62
t17 89.5t9 106.5t0 112.5t-10.5 107t-21 90.5t-32 63.5q-8 10 -21.5 18t-28 7.5t-27 -12.5t-19.5 -42q11 -6 25 -17t25.5 -24.5t17.5 -27.5t1 -26q-12 -30 -23.5 -81t-19 -110t-9.5 -119.5t2.5 -109.5t18 -80t38.5 -31zM175 900q-9 -11 -32 -22.5t-51 -21.5t-57 -16
t-50 -6.5t-29.5 7t4.5 24.5q57 48 92.5 78t57 47.5t33 26t20.5 12.5q11 5 27.5 9.5t31 6.5t23.5 1t6 -6zM266 1040q-3 5 6 6t23.5 -1t31 -6.5t27.5 -9.5q9 -4 20.5 -12.5t33 -26t57 -47.5t92.5 -78q13 -17 4.5 -24.5t-29.5 -7t-50 6.5t-57 16t-51 21.5t-32 22.5z" />
    <glyph glyph-name="Otilde" unicode="&#xd5;" horiz-adv-x="517" 
d="M368 661q44 -31 75 -79t48.5 -106.5t22.5 -123t-3 -127t-28.5 -120t-54 -102t-80 -72.5t-104.5 -31t-100.5 20t-71.5 64.5t-45.5 97t-22.5 116.5t-2.5 123.5t14.5 118t28 100t39 69.5q7 8 18 7t31 -15q9 43 36 65.5t62 28.5t72 -3t66 -31zM245 -46q18 0 32.5 23.5t25 62
t17 89.5t9 106.5t0 112.5t-10.5 107t-21 90.5t-32 63.5q-8 10 -21.5 18t-28 7.5t-27 -12.5t-19.5 -42q11 -6 25 -17t25.5 -24.5t17.5 -27.5t1 -26q-12 -30 -23.5 -81t-19 -110t-9.5 -119.5t2.5 -109.5t18 -80t38.5 -31zM399 945q0 6 6 3.5t12.5 -9t12.5 -15.5t6 -16
q0 -46 -13 -70.5t-35.5 -35t-51 -9.5t-58.5 7.5t-58.5 14.5t-51 11.5t-36 -0.5t-13.5 -22q0 -7 -6 -4t-13.5 11.5t-13 19.5t-5.5 19q1 43 15 65.5t36.5 31t51 6t58 -9.5t58 -15t50.5 -11t35.5 2.5t13.5 25.5z" />
    <glyph glyph-name="Odieresis" unicode="&#xd6;" horiz-adv-x="517" 
d="M368 661q44 -31 75 -79t48.5 -106.5t22.5 -123t-3 -127t-28.5 -120t-54 -102t-80 -72.5t-104.5 -31t-100.5 20t-71.5 64.5t-45.5 97t-22.5 116.5t-2.5 123.5t14.5 118t28 100t39 69.5q7 8 18 7t31 -15q9 43 36 65.5t62 28.5t72 -3t66 -31zM245 -46q18 0 32.5 23.5t25 62
t17 89.5t9 106.5t0 112.5t-10.5 107t-21 90.5t-32 63.5q-8 10 -21.5 18t-28 7.5t-27 -12.5t-19.5 -42q11 -6 25 -17t25.5 -24.5t17.5 -27.5t1 -26q-12 -30 -23.5 -81t-19 -110t-9.5 -119.5t2.5 -109.5t18 -80t38.5 -31zM176 744q-18 -39 -42.5 -39.5t-43.5 25.5t-28.5 71.5
t2.5 99.5q7 17 23.5 24.5t37.5 7t43 -6.5t39.5 -16t27 -21.5t6.5 -22.5q-15 -20 -23.5 -34.5t-14.5 -27.5t-12 -27t-15 -33zM405 744q-18 -39 -42.5 -39.5t-43.5 25.5t-28.5 71.5t2.5 99.5q7 17 23.5 24.5t37.5 7t43 -6.5t39.5 -16t27 -21.5t6.5 -22.5q-15 -20 -23.5 -34.5
t-14.5 -27.5t-12 -27t-15 -33z" />
    <glyph glyph-name="Ugrave" unicode="&#xd9;" horiz-adv-x="665" 
d="M200 600q-3 -144 -7 -254t-5 -185t3 -115.5t18 -45.5q17 -6 35.5 1.5t38.5 33t41 71.5t42 117q-5 88 -5.5 202.5t-0.5 264.5q0 8 15.5 7t38.5 -7.5t49.5 -17t48.5 -23t36 -25.5t12 -24q-4 -177 -2.5 -294.5t7 -191t13.5 -111t18.5 -53.5t21.5 -19.5t23 -8.5q7 -3 14 -7
t9 -7.5t-4.5 -5.5t-26.5 -2q-64 0 -109 12t-75.5 39t-48 71t-26.5 109q-21 -65 -44 -107t-46.5 -66.5t-46 -34.5t-41 -12t-33 1.5t-21.5 6.5q-58 22 -87 74t-41 143.5t-12.5 227.5t-1.5 326q0 8 15.5 7t38.5 -7.5t49.5 -17t48.5 -23t36 -25.5t12 -24zM499 810q3 -5 -6 -6
t-23.5 1t-31 6.5t-27.5 9.5q-9 4 -20.5 12.5t-33 26t-57 47.5t-92.5 78q-13 17 -4.5 24.5t29.5 7t50 -6.5t57 -16t51 -21.5t32 -22.5z" />
    <glyph glyph-name="Uacute" unicode="&#xda;" horiz-adv-x="665" 
d="M200 600q-3 -144 -7 -254t-5 -185t3 -115.5t18 -45.5q17 -6 35.5 1.5t38.5 33t41 71.5t42 117q-5 88 -5.5 202.5t-0.5 264.5q0 8 15.5 7t38.5 -7.5t49.5 -17t48.5 -23t36 -25.5t12 -24q-4 -177 -2.5 -294.5t7 -191t13.5 -111t18.5 -53.5t21.5 -19.5t23 -8.5q7 -3 14 -7
t9 -7.5t-4.5 -5.5t-26.5 -2q-64 0 -109 12t-75.5 39t-48 71t-26.5 109q-21 -65 -44 -107t-46.5 -66.5t-46 -34.5t-41 -12t-33 1.5t-21.5 6.5q-58 22 -87 74t-41 143.5t-12.5 227.5t-1.5 326q0 8 15.5 7t38.5 -7.5t49.5 -17t48.5 -23t36 -25.5t12 -24zM241 950q9 11 32 22.5
t51 21.5t57 16t50 6.5t29.5 -7t-4.5 -24.5q-57 -48 -92.5 -78t-57 -47.5t-33 -26t-20.5 -12.5q-11 -5 -27.5 -9.5t-31 -6.5t-23.5 -1t-6 6z" />
    <glyph glyph-name="Ucircumflex" unicode="&#xdb;" horiz-adv-x="665" 
d="M200 600q-3 -144 -7 -254t-5 -185t3 -115.5t18 -45.5q17 -6 35.5 1.5t38.5 33t41 71.5t42 117q-5 88 -5.5 202.5t-0.5 264.5q0 8 15.5 7t38.5 -7.5t49.5 -17t48.5 -23t36 -25.5t12 -24q-4 -177 -2.5 -294.5t7 -191t13.5 -111t18.5 -53.5t21.5 -19.5t23 -8.5q7 -3 14 -7
t9 -7.5t-4.5 -5.5t-26.5 -2q-64 0 -109 12t-75.5 39t-48 71t-26.5 109q-21 -65 -44 -107t-46.5 -66.5t-46 -34.5t-41 -12t-33 1.5t-21.5 6.5q-58 22 -87 74t-41 143.5t-12.5 227.5t-1.5 326q0 8 15.5 7t38.5 -7.5t49.5 -17t48.5 -23t36 -25.5t12 -24zM210 900
q-9 -11 -32 -22.5t-51 -21.5t-57 -16t-50 -6.5t-29.5 7t4.5 24.5q57 48 92.5 78t57 47.5t33 26t20.5 12.5q11 5 27.5 9.5t31 6.5t23.5 1t6 -6zM301 1040q-3 5 6 6t23.5 -1t31 -6.5t27.5 -9.5q9 -4 20.5 -12.5t33 -26t57 -47.5t92.5 -78q13 -17 4.5 -24.5t-29.5 -7t-50 6.5
t-57 16t-51 21.5t-32 22.5z" />
    <glyph glyph-name="Udieresis" unicode="&#xdc;" horiz-adv-x="665" 
d="M200 600q-3 -144 -7 -254t-5 -185t3 -115.5t18 -45.5q17 -6 35.5 1.5t38.5 33t41 71.5t42 117q-5 88 -5.5 202.5t-0.5 264.5q0 8 15.5 7t38.5 -7.5t49.5 -17t48.5 -23t36 -25.5t12 -24q-4 -177 -2.5 -294.5t7 -191t13.5 -111t18.5 -53.5t21.5 -19.5t23 -8.5q7 -3 14 -7
t9 -7.5t-4.5 -5.5t-26.5 -2q-64 0 -109 12t-75.5 39t-48 71t-26.5 109q-21 -65 -44 -107t-46.5 -66.5t-46 -34.5t-41 -12t-33 1.5t-21.5 6.5q-58 22 -87 74t-41 143.5t-12.5 227.5t-1.5 326q0 8 15.5 7t38.5 -7.5t49.5 -17t48.5 -23t36 -25.5t12 -24zM250 744
q-18 -39 -42.5 -39.5t-43.5 25.5t-28.5 71.5t2.5 99.5q7 17 23.5 24.5t37.5 7t43 -6.5t39.5 -16t27 -21.5t6.5 -22.5q-15 -20 -23.5 -34.5t-14.5 -27.5t-12 -27t-15 -33zM479 744q-18 -39 -42.5 -39.5t-43.5 25.5t-28.5 71.5t2.5 99.5q7 17 23.5 24.5t37.5 7t43 -6.5
t39.5 -16t27 -21.5t6.5 -22.5q-15 -20 -23.5 -34.5t-14.5 -27.5t-12 -27t-15 -33z" />
    <glyph glyph-name="Yacute" unicode="&#xdd;" horiz-adv-x="590" 
d="M200 600q-3 -144 -7 -254t-5 -185t3 -115.5t18 -45.5q19 -7 40.5 4t44.5 45.5t46.5 96t46.5 156.5v389q-2 11 12.5 11t36.5 -7t49 -19t50 -25t38.5 -25.5t16.5 -19.5q0 -19 -0.5 -67.5t-0.5 -111t-0.5 -131.5t-0.5 -130t-0.5 -105.5t-0.5 -58.5q-2 -99 -31.5 -174
t-82 -125.5t-126.5 -76.5t-164 -26q-20 0 -26.5 2t-4.5 5.5t9 7.5t14 7q9 4 27.5 16.5t41 34t46.5 52.5t44.5 73.5t34.5 96t16 119.5q0 16 0.5 58t0.5 99q-21 -76 -45 -125t-48.5 -78t-48.5 -41.5t-44 -15t-35.5 1t-22.5 6.5q-58 22 -87 74t-41 143.5t-12.5 227.5t-1.5 326
q0 8 15.5 7t38.5 -7.5t49.5 -17t48.5 -23t36 -25.5t12 -24zM204 950q9 11 32 22.5t51 21.5t57 16t50 6.5t29.5 -7t-4.5 -24.5q-57 -48 -92.5 -78t-57 -47.5t-33 -26t-20.5 -12.5q-11 -5 -27.5 -9.5t-31 -6.5t-23.5 -1t-6 6z" />
    <glyph glyph-name="ydieresis" unicode="&#xff;" 
d="M223 87q13 -8 25.5 -1t24.5 22.5t21.5 36.5t16.5 41v86.5t1.5 102t4.5 97.5t9 72q3 15 21 14.5t43 -10t52.5 -25.5t49 -31.5t32.5 -27.5t3 -13q-8 -9 -12 -27.5t-5.5 -43.5t-2 -55.5t-1.5 -63.5q-1 -32 -0.5 -75.5t-0.5 -94.5q43 29 78 73.5t50 115.5q1 5 6 7.5t10 1.5
t8.5 -5t1.5 -13q-9 -45 -24 -79t-35.5 -61t-44.5 -47.5t-51 -37.5q-2 -51 -5.5 -103.5t-11 -102t-20 -93.5t-32 -76.5t-46 -51.5t-62.5 -19q-36 -6 -71.5 7t-62.5 39.5t-40 64.5t-3.5 83t46.5 93.5t110 96.5l4 126q-20 -41 -50 -71.5t-68 -38.5q-48 -9 -84 10t-60.5 57
t-37 89t-12.5 106v82.5t0.5 52t1 34t1.5 28t2.5 35t3.5 55.5q0 11 16.5 9.5t40.5 -10t51 -22t50 -27t36.5 -25.5t10.5 -17q-6 -10 -9 -23t-5 -36t-3 -59t-3 -92q-2 -64 6.5 -107t24.5 -53zM297 -258q1 6 2 29q1 19 2.5 57t3.5 104q-57 -43 -81 -83.5t-26 -73.5t11.5 -55.5
t32 -29.5t35 4.5t20.5 47.5zM221 623q-18 -39 -42.5 -39.5t-43.5 25.5t-28.5 71.5t2.5 99.5q7 17 23.5 24.5t37.5 7t43 -6.5t39.5 -16t27 -21.5t6.5 -22.5q-15 -20 -23.5 -34.5t-14.5 -27.5t-12 -27t-15 -33zM450 623q-18 -39 -42.5 -39.5t-43.5 25.5t-28.5 71.5t2.5 99.5
q7 17 23.5 24.5t37.5 7t43 -6.5t39.5 -16t27 -21.5t6.5 -22.5q-15 -20 -23.5 -34.5t-14.5 -27.5t-12 -27t-15 -33z" />
    <glyph glyph-name="yacute" unicode="&#xfd;" 
d="M223 87q13 -8 25.5 -1t24.5 22.5t21.5 36.5t16.5 41v86.5t1.5 102t4.5 97.5t9 72q3 15 21 14.5t43 -10t52.5 -25.5t49 -31.5t32.5 -27.5t3 -13q-8 -9 -12 -27.5t-5.5 -43.5t-2 -55.5t-1.5 -63.5q-1 -32 -0.5 -75.5t-0.5 -94.5q43 29 78 73.5t50 115.5q1 5 6 7.5t10 1.5
t8.5 -5t1.5 -13q-9 -45 -24 -79t-35.5 -61t-44.5 -47.5t-51 -37.5q-2 -51 -5.5 -103.5t-11 -102t-20 -93.5t-32 -76.5t-46 -51.5t-62.5 -19q-36 -6 -71.5 7t-62.5 39.5t-40 64.5t-3.5 83t46.5 93.5t110 96.5l4 126q-20 -41 -50 -71.5t-68 -38.5q-48 -9 -84 10t-60.5 57
t-37 89t-12.5 106v82.5t0.5 52t1 34t1.5 28t2.5 35t3.5 55.5q0 11 16.5 9.5t40.5 -10t51 -22t50 -27t36.5 -25.5t10.5 -17q-6 -10 -9 -23t-5 -36t-3 -59t-3 -92q-2 -64 6.5 -107t24.5 -53zM297 -258q1 6 2 29q1 19 2.5 57t3.5 104q-57 -43 -81 -83.5t-26 -73.5t11.5 -55.5
t32 -29.5t35 4.5t20.5 47.5zM212 829q9 11 32 22.5t51 21.5t57 16t50 6.5t29.5 -7t-4.5 -24.5q-57 -48 -92.5 -78t-57 -47.5t-33 -26t-20.5 -12.5q-11 -5 -27.5 -9.5t-31 -6.5t-23.5 -1t-6 6z" />
    <glyph glyph-name="udieresis" unicode="&#xfc;" 
d="M632 280q0 7 4.5 10t10 2t9 -6t1.5 -15q-8 -43 -19 -84t-27.5 -78.5t-39.5 -70t-54 -59.5q-27 -23 -59.5 -28.5t-62.5 11.5t-53.5 61t-31.5 120q-11 -53 -41 -93.5t-77 -49.5q-48 -9 -84 10t-60.5 57t-37 89t-12.5 106v82.5t0.5 52t1 34t1.5 28t2.5 35.5t3.5 55
q0 10 16.5 9t40.5 -9.5t51 -22t50 -27t36.5 -25.5t10.5 -17q-6 -10 -9 -23t-5 -36t-3 -59t-3 -92q-2 -64 6.5 -100.5t24.5 -46.5t30.5 2.5t25.5 34t18 45.5t8 36q0 22 1 64t3 90t6 94.5t10 77.5q3 15 21 14.5t43 -10t52.5 -25.5t49 -31.5t32.5 -27.5t3 -13q-11 -13 -20 -47
t-14 -77t-6 -89.5t3.5 -85t14.5 -63t28 -23.5q14 1 29.5 20.5t29 50.5t24.5 68.5t17 74.5zM221 623q-18 -39 -42.5 -39.5t-43.5 25.5t-28.5 71.5t2.5 99.5q7 17 23.5 24.5t37.5 7t43 -6.5t39.5 -16t27 -21.5t6.5 -22.5q-15 -20 -23.5 -34.5t-14.5 -27.5t-12 -27t-15 -33z
M450 623q-18 -39 -42.5 -39.5t-43.5 25.5t-28.5 71.5t2.5 99.5q7 17 23.5 24.5t37.5 7t43 -6.5t39.5 -16t27 -21.5t6.5 -22.5q-15 -20 -23.5 -34.5t-14.5 -27.5t-12 -27t-15 -33z" />
    <glyph glyph-name="ucircumflex" unicode="&#xfb;" 
d="M632 280q0 7 4.5 10t10 2t9 -6t1.5 -15q-8 -43 -19 -84t-27.5 -78.5t-39.5 -70t-54 -59.5q-27 -23 -59.5 -28.5t-62.5 11.5t-53.5 61t-31.5 120q-11 -53 -41 -93.5t-77 -49.5q-48 -9 -84 10t-60.5 57t-37 89t-12.5 106v82.5t0.5 52t1 34t1.5 28t2.5 35.5t3.5 55
q0 10 16.5 9t40.5 -9.5t51 -22t50 -27t36.5 -25.5t10.5 -17q-6 -10 -9 -23t-5 -36t-3 -59t-3 -92q-2 -64 6.5 -100.5t24.5 -46.5t30.5 2.5t25.5 34t18 45.5t8 36q0 22 1 64t3 90t6 94.5t10 77.5q3 15 21 14.5t43 -10t52.5 -25.5t49 -31.5t32.5 -27.5t3 -13q-11 -13 -20 -47
t-14 -77t-6 -89.5t3.5 -85t14.5 -63t28 -23.5q14 1 29.5 20.5t29 50.5t24.5 68.5t17 74.5zM220 779q-9 -11 -32 -22.5t-51 -21.5t-57 -16t-50 -6.5t-29.5 7t4.5 24.5q57 48 92.5 78t57 47.5t33 26t20.5 12.5q11 5 27.5 9.5t31 6.5t23.5 1t6 -6zM311 919q-3 5 6 6t23.5 -1
t31 -6.5t27.5 -9.5q9 -4 20.5 -12.5t33 -26t57 -47.5t92.5 -78q13 -17 4.5 -24.5t-29.5 -7t-50 6.5t-57 16t-51 21.5t-32 22.5z" />
    <glyph glyph-name="uacute" unicode="&#xfa;" 
d="M632 280q0 7 4.5 10t10 2t9 -6t1.5 -15q-8 -43 -19 -84t-27.5 -78.5t-39.5 -70t-54 -59.5q-27 -23 -59.5 -28.5t-62.5 11.5t-53.5 61t-31.5 120q-11 -53 -41 -93.5t-77 -49.5q-48 -9 -84 10t-60.5 57t-37 89t-12.5 106v82.5t0.5 52t1 34t1.5 28t2.5 35.5t3.5 55
q0 10 16.5 9t40.5 -9.5t51 -22t50 -27t36.5 -25.5t10.5 -17q-6 -10 -9 -23t-5 -36t-3 -59t-3 -92q-2 -64 6.5 -100.5t24.5 -46.5t30.5 2.5t25.5 34t18 45.5t8 36q0 22 1 64t3 90t6 94.5t10 77.5q3 15 21 14.5t43 -10t52.5 -25.5t49 -31.5t32.5 -27.5t3 -13q-11 -13 -20 -47
t-14 -77t-6 -89.5t3.5 -85t14.5 -63t28 -23.5q14 1 29.5 20.5t29 50.5t24.5 68.5t17 74.5zM212 829q9 11 32 22.5t51 21.5t57 16t50 6.5t29.5 -7t-4.5 -24.5q-57 -48 -92.5 -78t-57 -47.5t-33 -26t-20.5 -12.5q-11 -5 -27.5 -9.5t-31 -6.5t-23.5 -1t-6 6z" />
    <glyph glyph-name="ugrave" unicode="&#xf9;" 
d="M632 280q0 7 4.5 10t10 2t9 -6t1.5 -15q-8 -43 -19 -84t-27.5 -78.5t-39.5 -70t-54 -59.5q-27 -23 -59.5 -28.5t-62.5 11.5t-53.5 61t-31.5 120q-11 -53 -41 -93.5t-77 -49.5q-48 -9 -84 10t-60.5 57t-37 89t-12.5 106v82.5t0.5 52t1 34t1.5 28t2.5 35.5t3.5 55
q0 10 16.5 9t40.5 -9.5t51 -22t50 -27t36.5 -25.5t10.5 -17q-6 -10 -9 -23t-5 -36t-3 -59t-3 -92q-2 -64 6.5 -100.5t24.5 -46.5t30.5 2.5t25.5 34t18 45.5t8 36q0 22 1 64t3 90t6 94.5t10 77.5q3 15 21 14.5t43 -10t52.5 -25.5t49 -31.5t32.5 -27.5t3 -13q-11 -13 -20 -47
t-14 -77t-6 -89.5t3.5 -85t14.5 -63t28 -23.5q14 1 29.5 20.5t29 50.5t24.5 68.5t17 74.5zM470 689q3 -5 -6 -6t-23.5 1t-31 6.5t-27.5 9.5q-9 4 -20.5 12.5t-33 26t-57 47.5t-92.5 78q-13 17 -4.5 24.5t29.5 7t50 -6.5t57 -16t51 -21.5t32 -22.5z" />
    <glyph glyph-name="odieresis" unicode="&#xf6;" horiz-adv-x="549" 
d="M586 277q8 12 15 7.5t3 -18.5q-3 -9 -13 -24.5t-27.5 -30t-42.5 -25t-58 -11.5q-9 -61 -35.5 -102.5t-60.5 -67.5t-71 -37t-67 -11q-63 1 -109.5 31.5t-76.5 79.5t-42.5 112t-8 128t26 128t61.5 113q8 10 19.5 11.5t25 -4.5t27 -17t26.5 -24q33 38 88 38q36 2 76.5 -15.5
t72 -58t48 -107t3.5 -163.5q30 -1 62 13t58 55zM296 194q-38 12 -66 32t-48 45q-4 -47 -3 -96t7 -89t18 -65.5t31 -24.5q27 2 41 51t20 147zM296 229q6 131 -6 195.5t-58 64.5q-15 0 -28 -8q14 -20 20 -36t-2 -21q-12 -8 -21 -36.5t-14 -68.5q15 -28 41.5 -51.5t67.5 -38.5z
M192 623q-18 -39 -42.5 -39.5t-43.5 25.5t-28.5 71.5t2.5 99.5q7 17 23.5 24.5t37.5 7t43 -6.5t39.5 -16t27 -21.5t6.5 -22.5q-15 -20 -23.5 -34.5t-14.5 -27.5t-12 -27t-15 -33zM421 623q-18 -39 -42.5 -39.5t-43.5 25.5t-28.5 71.5t2.5 99.5q7 17 23.5 24.5t37.5 7
t43 -6.5t39.5 -16t27 -21.5t6.5 -22.5q-15 -20 -23.5 -34.5t-14.5 -27.5t-12 -27t-15 -33z" />
    <glyph glyph-name="otilde" unicode="&#xf5;" horiz-adv-x="549" 
d="M586 277q8 12 15 7.5t3 -18.5q-3 -9 -13 -24.5t-27.5 -30t-42.5 -25t-58 -11.5q-9 -61 -35.5 -102.5t-60.5 -67.5t-71 -37t-67 -11q-63 1 -109.5 31.5t-76.5 79.5t-42.5 112t-8 128t26 128t61.5 113q8 10 19.5 11.5t25 -4.5t27 -17t26.5 -24q33 38 88 38q36 2 76.5 -15.5
t72 -58t48 -107t3.5 -163.5q30 -1 62 13t58 55zM296 194q-38 12 -66 32t-48 45q-4 -47 -3 -96t7 -89t18 -65.5t31 -24.5q27 2 41 51t20 147zM296 229q6 131 -6 195.5t-58 64.5q-15 0 -28 -8q14 -20 20 -36t-2 -21q-12 -8 -21 -36.5t-14 -68.5q15 -28 41.5 -51.5t67.5 -38.5z
M415 824q0 6 6 3.5t12.5 -9t12.5 -15.5t6 -16q0 -46 -13 -70.5t-35.5 -35t-51 -9.5t-58.5 7.5t-58.5 14.5t-51 11.5t-36 -0.5t-13.5 -22q0 -7 -6 -4t-13.5 11.5t-13 19.5t-5.5 19q1 43 15 65.5t36.5 31t51 6t58 -9.5t58 -15t50.5 -11t35.5 2.5t13.5 25.5z" />
    <glyph glyph-name="ocircumflex" unicode="&#xf4;" horiz-adv-x="549" 
d="M586 277q8 12 15 7.5t3 -18.5q-3 -9 -13 -24.5t-27.5 -30t-42.5 -25t-58 -11.5q-9 -61 -35.5 -102.5t-60.5 -67.5t-71 -37t-67 -11q-63 1 -109.5 31.5t-76.5 79.5t-42.5 112t-8 128t26 128t61.5 113q8 10 19.5 11.5t25 -4.5t27 -17t26.5 -24q33 38 88 38q36 2 76.5 -15.5
t72 -58t48 -107t3.5 -163.5q30 -1 62 13t58 55zM296 194q-38 12 -66 32t-48 45q-4 -47 -3 -96t7 -89t18 -65.5t31 -24.5q27 2 41 51t20 147zM296 229q6 131 -6 195.5t-58 64.5q-15 0 -28 -8q14 -20 20 -36t-2 -21q-12 -8 -21 -36.5t-14 -68.5q15 -28 41.5 -51.5t67.5 -38.5z
M191 779q-9 -11 -32 -22.5t-51 -21.5t-57 -16t-50 -6.5t-29.5 7t4.5 24.5q57 48 92.5 78t57 47.5t33 26t20.5 12.5q11 5 27.5 9.5t31 6.5t23.5 1t6 -6zM282 919q-3 5 6 6t23.5 -1t31 -6.5t27.5 -9.5q9 -4 20.5 -12.5t33 -26t57 -47.5t92.5 -78q13 -17 4.5 -24.5t-29.5 -7
t-50 6.5t-57 16t-51 21.5t-32 22.5z" />
    <glyph glyph-name="oacute" unicode="&#xf3;" horiz-adv-x="549" 
d="M586 277q8 12 15 7.5t3 -18.5q-3 -9 -13 -24.5t-27.5 -30t-42.5 -25t-58 -11.5q-9 -61 -35.5 -102.5t-60.5 -67.5t-71 -37t-67 -11q-63 1 -109.5 31.5t-76.5 79.5t-42.5 112t-8 128t26 128t61.5 113q8 10 19.5 11.5t25 -4.5t27 -17t26.5 -24q33 38 88 38q36 2 76.5 -15.5
t72 -58t48 -107t3.5 -163.5q30 -1 62 13t58 55zM296 194q-38 12 -66 32t-48 45q-4 -47 -3 -96t7 -89t18 -65.5t31 -24.5q27 2 41 51t20 147zM296 229q6 131 -6 195.5t-58 64.5q-15 0 -28 -8q14 -20 20 -36t-2 -21q-12 -8 -21 -36.5t-14 -68.5q15 -28 41.5 -51.5t67.5 -38.5z
M183 829q9 11 32 22.5t51 21.5t57 16t50 6.5t29.5 -7t-4.5 -24.5q-57 -48 -92.5 -78t-57 -47.5t-33 -26t-20.5 -12.5q-11 -5 -27.5 -9.5t-31 -6.5t-23.5 -1t-6 6z" />
    <glyph glyph-name="ograve" unicode="&#xf2;" horiz-adv-x="549" 
d="M586 277q8 12 15 7.5t3 -18.5q-3 -9 -13 -24.5t-27.5 -30t-42.5 -25t-58 -11.5q-9 -61 -35.5 -102.5t-60.5 -67.5t-71 -37t-67 -11q-63 1 -109.5 31.5t-76.5 79.5t-42.5 112t-8 128t26 128t61.5 113q8 10 19.5 11.5t25 -4.5t27 -17t26.5 -24q33 38 88 38q36 2 76.5 -15.5
t72 -58t48 -107t3.5 -163.5q30 -1 62 13t58 55zM296 194q-38 12 -66 32t-48 45q-4 -47 -3 -96t7 -89t18 -65.5t31 -24.5q27 2 41 51t20 147zM296 229q6 131 -6 195.5t-58 64.5q-15 0 -28 -8q14 -20 20 -36t-2 -21q-12 -8 -21 -36.5t-14 -68.5q15 -28 41.5 -51.5t67.5 -38.5z
M441 689q3 -5 -6 -6t-23.5 1t-31 6.5t-27.5 9.5q-9 4 -20.5 12.5t-33 26t-57 47.5t-92.5 78q-13 17 -4.5 24.5t29.5 7t50 -6.5t57 -16t51 -21.5t32 -22.5z" />
    <glyph glyph-name="ntilde" unicode="&#xf1;" horiz-adv-x="618" 
d="M522 448q-5 -24 -10.5 -61.5t-9.5 -80.5t-5.5 -86t2.5 -78t14.5 -56t30.5 -20q14 1 29.5 20.5t29 50t24.5 68t17 74.5q1 6 6.5 7.5t11 0t8.5 -6t0 -9.5q-7 -39 -18.5 -79.5t-28 -78.5t-40 -72.5t-54.5 -61.5q-27 -23 -59.5 -28.5t-63 11.5t-54 61t-30.5 120q-1 39 0.5 88
t0.5 91t-8.5 69t-26.5 23q-12 -3 -26 -29t-27.5 -63.5t-25.5 -81.5t-20 -83q1 -49 1 -88t-4 -58q-7 -13 -23.5 -13t-37 7.5t-42.5 20t-40.5 27t-30.5 27.5t-12 20q0 11 -0.5 40t-0.5 68t0.5 85t2.5 91.5t6 87t10 71.5q3 15 21 14.5t43 -10t52.5 -25.5t49 -31.5t32.5 -27.5
t3 -13q-14 -28 -20.5 -73.5t-8.5 -97.5q9 34 20.5 70.5t25.5 70t30.5 62t36.5 47.5q24 24 50.5 30.5t51.5 0.5t47 -20t38.5 -31t25 -34t6.5 -27zM449 824q0 6 6 3.5t12.5 -9t12.5 -15.5t6 -16q0 -46 -13 -70.5t-35.5 -35t-51 -9.5t-58.5 7.5t-58.5 14.5t-51 11.5t-36 -0.5
t-13.5 -22q0 -7 -6 -4t-13.5 11.5t-13 19.5t-5.5 19q1 43 15 65.5t36.5 31t51 6t58 -9.5t58 -15t50.5 -11t35.5 2.5t13.5 25.5z" />
    <glyph glyph-name="idieresis" unicode="&#xef;" horiz-adv-x="426" 
d="M129 143q-1 11 -2 37t-1.5 61.5t0 76.5t2.5 82q-1 -1 -1 -2q-18 -39 -42.5 -39.5t-43.5 25.5t-28.5 71.5t2.5 99.5q15 23 44.5 27.5t64.5 -3.5t72 -25t69 -36.5t54 -38t26 -28.5q-11 -13 -20 -47t-14 -77t-6 -89.5t3.5 -85t14.5 -63t28 -23.5q14 1 29.5 22t30 52.5
t25.5 69t16 70.5q1 4 5.5 6t9 1.5t8 -5t2.5 -11.5q-16 -95 -50.5 -171t-90.5 -121q-27 -22 -60 -28t-63 11.5t-53.5 61t-30.5 119.5zM131 623q-18 -39 -42.5 -39.5t-43.5 25.5t-28.5 71.5t2.5 99.5q7 17 23.5 24.5t37.5 7t43 -6.5t39.5 -16t27 -21.5t6.5 -22.5
q-15 -20 -23.5 -34.5t-14.5 -27.5t-12 -27t-15 -33zM360 623q-18 -39 -42.5 -39.5t-43.5 25.5t-28.5 71.5t2.5 99.5q7 17 23.5 24.5t37.5 7t43 -6.5t39.5 -16t27 -21.5t6.5 -22.5q-15 -20 -23.5 -34.5t-14.5 -27.5t-12 -27t-15 -33z" />
    <glyph glyph-name="icircumflex" unicode="&#xee;" horiz-adv-x="426" 
d="M129 143q-1 11 -2 37t-1.5 61.5t0 76.5t2.5 82q-1 -1 -1 -2q-18 -39 -42.5 -39.5t-43.5 25.5t-28.5 71.5t2.5 99.5q15 23 44.5 27.5t64.5 -3.5t72 -25t69 -36.5t54 -38t26 -28.5q-11 -13 -20 -47t-14 -77t-6 -89.5t3.5 -85t14.5 -63t28 -23.5q14 1 29.5 22t30 52.5
t25.5 69t16 70.5q1 4 5.5 6t9 1.5t8 -5t2.5 -11.5q-16 -95 -50.5 -171t-90.5 -121q-27 -22 -60 -28t-63 11.5t-53.5 61t-30.5 119.5zM130 779q-9 -11 -32 -22.5t-51 -21.5t-57 -16t-50 -6.5t-29.5 7t4.5 24.5q57 48 92.5 78t57 47.5t33 26t20.5 12.5q11 5 27.5 9.5t31 6.5
t23.5 1t6 -6zM221 919q-3 5 6 6t23.5 -1t31 -6.5t27.5 -9.5q9 -4 20.5 -12.5t33 -26t57 -47.5t92.5 -78q13 -17 4.5 -24.5t-29.5 -7t-50 6.5t-57 16t-51 21.5t-32 22.5z" />
    <glyph glyph-name="iacute" unicode="&#xed;" horiz-adv-x="426" 
d="M129 143q-1 11 -2 37t-1.5 61.5t0 76.5t2.5 82q-1 -1 -1 -2q-18 -39 -42.5 -39.5t-43.5 25.5t-28.5 71.5t2.5 99.5q15 23 44.5 27.5t64.5 -3.5t72 -25t69 -36.5t54 -38t26 -28.5q-11 -13 -20 -47t-14 -77t-6 -89.5t3.5 -85t14.5 -63t28 -23.5q14 1 29.5 22t30 52.5
t25.5 69t16 70.5q1 4 5.5 6t9 1.5t8 -5t2.5 -11.5q-16 -95 -50.5 -171t-90.5 -121q-27 -22 -60 -28t-63 11.5t-53.5 61t-30.5 119.5zM122 829q9 11 32 22.5t51 21.5t57 16t50 6.5t29.5 -7t-4.5 -24.5q-57 -48 -92.5 -78t-57 -47.5t-33 -26t-20.5 -12.5q-11 -5 -27.5 -9.5
t-31 -6.5t-23.5 -1t-6 6z" />
    <glyph glyph-name="igrave" unicode="&#xec;" horiz-adv-x="426" 
d="M129 143q-1 11 -2 37t-1.5 61.5t0 76.5t2.5 82q-1 -1 -1 -2q-18 -39 -42.5 -39.5t-43.5 25.5t-28.5 71.5t2.5 99.5q15 23 44.5 27.5t64.5 -3.5t72 -25t69 -36.5t54 -38t26 -28.5q-11 -13 -20 -47t-14 -77t-6 -89.5t3.5 -85t14.5 -63t28 -23.5q14 1 29.5 22t30 52.5
t25.5 69t16 70.5q1 4 5.5 6t9 1.5t8 -5t2.5 -11.5q-16 -95 -50.5 -171t-90.5 -121q-27 -22 -60 -28t-63 11.5t-53.5 61t-30.5 119.5zM380 689q3 -5 -6 -6t-23.5 1t-31 6.5t-27.5 9.5q-9 4 -20.5 12.5t-33 26t-57 47.5t-92.5 78q-13 17 -4.5 24.5t29.5 7t50 -6.5t57 -16
t51 -21.5t32 -22.5z" />
    <glyph glyph-name="edieresis" unicode="&#xeb;" horiz-adv-x="447" 
d="M332 356q-11 -16 -26 -38t-31.5 -46t-34.5 -49t-35 -47q4 -52 17 -90.5t37 -48.5q33 -14 65.5 -1.5t61 46t51 84t35.5 113.5q2 10 6.5 11t8.5 -3t7 -11t2 -12q-8 -56 -29.5 -111.5t-57 -99t-84.5 -70.5t-112 -26q-68 1 -113.5 31t-70 78t-30 107t4.5 118.5t34.5 113
t60 90t81 49.5t98.5 -8q26 -11 46.5 -26t35.5 -26q14 -14 14.5 -30.5t-6.5 -34t-18 -34t-18 -29.5zM316 483q-26 3 -46.5 -19.5t-34.5 -59t-22 -83.5t-9 -94q22 34 45.5 72.5t41 74t25.5 64.5t0 45zM141 623q-18 -39 -42.5 -39.5t-43.5 25.5t-28.5 71.5t2.5 99.5
q7 17 23.5 24.5t37.5 7t43 -6.5t39.5 -16t27 -21.5t6.5 -22.5q-15 -20 -23.5 -34.5t-14.5 -27.5t-12 -27t-15 -33zM370 623q-18 -39 -42.5 -39.5t-43.5 25.5t-28.5 71.5t2.5 99.5q7 17 23.5 24.5t37.5 7t43 -6.5t39.5 -16t27 -21.5t6.5 -22.5q-15 -20 -23.5 -34.5
t-14.5 -27.5t-12 -27t-15 -33z" />
    <glyph glyph-name="ecircumflex" unicode="&#xea;" horiz-adv-x="447" 
d="M332 356q-11 -16 -26 -38t-31.5 -46t-34.5 -49t-35 -47q4 -52 17 -90.5t37 -48.5q33 -14 65.5 -1.5t61 46t51 84t35.5 113.5q2 10 6.5 11t8.5 -3t7 -11t2 -12q-8 -56 -29.5 -111.5t-57 -99t-84.5 -70.5t-112 -26q-68 1 -113.5 31t-70 78t-30 107t4.5 118.5t34.5 113
t60 90t81 49.5t98.5 -8q26 -11 46.5 -26t35.5 -26q14 -14 14.5 -30.5t-6.5 -34t-18 -34t-18 -29.5zM316 483q-26 3 -46.5 -19.5t-34.5 -59t-22 -83.5t-9 -94q22 34 45.5 72.5t41 74t25.5 64.5t0 45zM140 779q-9 -11 -32 -22.5t-51 -21.5t-57 -16t-50 -6.5t-29.5 7t4.5 24.5
q57 48 92.5 78t57 47.5t33 26t20.5 12.5q11 5 27.5 9.5t31 6.5t23.5 1t6 -6zM231 919q-3 5 6 6t23.5 -1t31 -6.5t27.5 -9.5q9 -4 20.5 -12.5t33 -26t57 -47.5t92.5 -78q13 -17 4.5 -24.5t-29.5 -7t-50 6.5t-57 16t-51 21.5t-32 22.5z" />
    <glyph glyph-name="eacute" unicode="&#xe9;" horiz-adv-x="447" 
d="M332 356q-11 -16 -26 -38t-31.5 -46t-34.5 -49t-35 -47q4 -52 17 -90.5t37 -48.5q33 -14 65.5 -1.5t61 46t51 84t35.5 113.5q2 10 6.5 11t8.5 -3t7 -11t2 -12q-8 -56 -29.5 -111.5t-57 -99t-84.5 -70.5t-112 -26q-68 1 -113.5 31t-70 78t-30 107t4.5 118.5t34.5 113
t60 90t81 49.5t98.5 -8q26 -11 46.5 -26t35.5 -26q14 -14 14.5 -30.5t-6.5 -34t-18 -34t-18 -29.5zM316 483q-26 3 -46.5 -19.5t-34.5 -59t-22 -83.5t-9 -94q22 34 45.5 72.5t41 74t25.5 64.5t0 45zM132 829q9 11 32 22.5t51 21.5t57 16t50 6.5t29.5 -7t-4.5 -24.5
q-57 -48 -92.5 -78t-57 -47.5t-33 -26t-20.5 -12.5q-11 -5 -27.5 -9.5t-31 -6.5t-23.5 -1t-6 6z" />
    <glyph glyph-name="egrave" unicode="&#xe8;" horiz-adv-x="447" 
d="M332 356q-11 -16 -26 -38t-31.5 -46t-34.5 -49t-35 -47q4 -52 17 -90.5t37 -48.5q33 -14 65.5 -1.5t61 46t51 84t35.5 113.5q2 10 6.5 11t8.5 -3t7 -11t2 -12q-8 -56 -29.5 -111.5t-57 -99t-84.5 -70.5t-112 -26q-68 1 -113.5 31t-70 78t-30 107t4.5 118.5t34.5 113
t60 90t81 49.5t98.5 -8q26 -11 46.5 -26t35.5 -26q14 -14 14.5 -30.5t-6.5 -34t-18 -34t-18 -29.5zM316 483q-26 3 -46.5 -19.5t-34.5 -59t-22 -83.5t-9 -94q22 34 45.5 72.5t41 74t25.5 64.5t0 45zM390 689q3 -5 -6 -6t-23.5 1t-31 6.5t-27.5 9.5q-9 4 -20.5 12.5t-33 26
t-57 47.5t-92.5 78q-13 17 -4.5 24.5t29.5 7t50 -6.5t57 -16t51 -21.5t32 -22.5z" />
    <glyph glyph-name="aring" unicode="&#xe5;" horiz-adv-x="595" 
d="M621 280q2 7 7 10.5t9.5 2.5t7.5 -6.5t1 -15.5q-6 -32 -16.5 -71.5t-26.5 -79.5t-40 -77t-57 -64q-27 -22 -59.5 -27.5t-62.5 11.5t-53.5 60.5t-31.5 119.5q-11 -53 -41 -93.5t-77 -49.5t-83.5 10t-60.5 56.5t-36.5 88.5t-13 105.5t11.5 107t36.5 93.5t62 65.5t88.5 22.5
q-14 18 -21.5 40t-7.5 47q0 29 11 55t30 45t44.5 30t54.5 11t55 -11t45 -30t30 -45t11 -55t-10.5 -53.5t-28.5 -43.5q24 -11 47.5 -26t41 -28.5t26 -23t1.5 -10.5q-11 -13 -20 -47t-14 -77t-6 -89.5t3.5 -85t14.5 -63t28 -23.5q14 1 29 20.5t28.5 50.5t25 68.5t17.5 74.5z
M212 71q16 -10 29 3.5t23.5 38t17.5 54t12 51.5q0 17 0.5 47.5t2 67t3.5 75.5t5 73q-28 4 -48.5 -10.5t-35.5 -41t-24 -61.5t-13 -73t-3.5 -75.5t4.5 -68.5t11 -52.5t16 -27.5zM257 634q0 -18 2 -36.5t6.5 -33.5t12.5 -24.5t19 -9.5q9 0 15 6l2 8q2 10 10 13q5 15 7.5 35.5
t2.5 41.5q0 18 -1.5 37.5t-5.5 35.5t-11.5 26t-18.5 10t-19 -10t-12.5 -26t-6.5 -35.5t-2 -37.5z" />
    <glyph glyph-name="adieresis" unicode="&#xe4;" horiz-adv-x="595" 
d="M621 280q2 7 7 10.5t9.5 2.5t7.5 -6.5t1 -15.5q-6 -32 -16.5 -71.5t-26.5 -79.5t-40 -77t-57 -64q-27 -22 -59.5 -27.5t-62.5 11.5t-53.5 60.5t-31.5 119.5q-11 -53 -41 -93.5t-77 -49.5q-54 -11 -93 15t-63 73t-33 108t-2 122t30 114.5t62.5 84.5t96 33t129.5 -40l6 34
q3 15 21 14.5t43 -10t52.5 -25.5t49 -31.5t32.5 -27.5t3 -13q-11 -13 -20 -47t-14 -77t-6 -89.5t3.5 -85t14.5 -63t28 -23.5q14 1 29 20.5t28.5 50.5t25 68.5t17.5 74.5zM212 71q16 -10 29 3.5t23.5 38t17.5 54t12 51.5q0 17 0.5 47.5t2 67t3.5 75.5t5 73q-28 4 -48.5 -10.5
t-35.5 -41t-24 -61.5t-13 -73t-3.5 -75.5t4.5 -68.5t11 -52.5t16 -27.5zM215 623q-18 -39 -42.5 -39.5t-43.5 25.5t-28.5 71.5t2.5 99.5q7 17 23.5 24.5t37.5 7t43 -6.5t39.5 -16t27 -21.5t6.5 -22.5q-15 -20 -23.5 -34.5t-14.5 -27.5t-12 -27t-15 -33zM444 623
q-18 -39 -42.5 -39.5t-43.5 25.5t-28.5 71.5t2.5 99.5q7 17 23.5 24.5t37.5 7t43 -6.5t39.5 -16t27 -21.5t6.5 -22.5q-15 -20 -23.5 -34.5t-14.5 -27.5t-12 -27t-15 -33z" />
    <glyph glyph-name="atilde" unicode="&#xe3;" horiz-adv-x="595" 
d="M621 280q2 7 7 10.5t9.5 2.5t7.5 -6.5t1 -15.5q-6 -32 -16.5 -71.5t-26.5 -79.5t-40 -77t-57 -64q-27 -22 -59.5 -27.5t-62.5 11.5t-53.5 60.5t-31.5 119.5q-11 -53 -41 -93.5t-77 -49.5q-54 -11 -93 15t-63 73t-33 108t-2 122t30 114.5t62.5 84.5t96 33t129.5 -40l6 34
q3 15 21 14.5t43 -10t52.5 -25.5t49 -31.5t32.5 -27.5t3 -13q-11 -13 -20 -47t-14 -77t-6 -89.5t3.5 -85t14.5 -63t28 -23.5q14 1 29 20.5t28.5 50.5t25 68.5t17.5 74.5zM212 71q16 -10 29 3.5t23.5 38t17.5 54t12 51.5q0 17 0.5 47.5t2 67t3.5 75.5t5 73q-28 4 -48.5 -10.5
t-35.5 -41t-24 -61.5t-13 -73t-3.5 -75.5t4.5 -68.5t11 -52.5t16 -27.5zM437 824q0 6 6 3.5t12.5 -9t12.5 -15.5t6 -16q0 -46 -13 -70.5t-35.5 -35t-51 -9.5t-58.5 7.5t-58.5 14.5t-51 11.5t-36 -0.5t-13.5 -22q0 -7 -6 -4t-13.5 11.5t-13 19.5t-5.5 19q1 43 15 65.5
t36.5 31t51 6t58 -9.5t58 -15t50.5 -11t35.5 2.5t13.5 25.5z" />
    <glyph glyph-name="acircumflex" unicode="&#xe2;" horiz-adv-x="595" 
d="M621 280q2 7 7 10.5t9.5 2.5t7.5 -6.5t1 -15.5q-6 -32 -16.5 -71.5t-26.5 -79.5t-40 -77t-57 -64q-27 -22 -59.5 -27.5t-62.5 11.5t-53.5 60.5t-31.5 119.5q-11 -53 -41 -93.5t-77 -49.5q-54 -11 -93 15t-63 73t-33 108t-2 122t30 114.5t62.5 84.5t96 33t129.5 -40l6 34
q3 15 21 14.5t43 -10t52.5 -25.5t49 -31.5t32.5 -27.5t3 -13q-11 -13 -20 -47t-14 -77t-6 -89.5t3.5 -85t14.5 -63t28 -23.5q14 1 29 20.5t28.5 50.5t25 68.5t17.5 74.5zM212 71q16 -10 29 3.5t23.5 38t17.5 54t12 51.5q0 17 0.5 47.5t2 67t3.5 75.5t5 73q-28 4 -48.5 -10.5
t-35.5 -41t-24 -61.5t-13 -73t-3.5 -75.5t4.5 -68.5t11 -52.5t16 -27.5zM214 779q-9 -11 -32 -22.5t-51 -21.5t-57 -16t-50 -6.5t-29.5 7t4.5 24.5q57 48 92.5 78t57 47.5t33 26t20.5 12.5q11 5 27.5 9.5t31 6.5t23.5 1t6 -6zM305 919q-3 5 6 6t23.5 -1t31 -6.5t27.5 -9.5
q9 -4 20.5 -12.5t33 -26t57 -47.5t92.5 -78q13 -17 4.5 -24.5t-29.5 -7t-50 6.5t-57 16t-51 21.5t-32 22.5z" />
    <glyph glyph-name="aacute" unicode="&#xe1;" horiz-adv-x="595" 
d="M621 280q2 7 7 10.5t9.5 2.5t7.5 -6.5t1 -15.5q-6 -32 -16.5 -71.5t-26.5 -79.5t-40 -77t-57 -64q-27 -22 -59.5 -27.5t-62.5 11.5t-53.5 60.5t-31.5 119.5q-11 -53 -41 -93.5t-77 -49.5q-54 -11 -93 15t-63 73t-33 108t-2 122t30 114.5t62.5 84.5t96 33t129.5 -40l6 34
q3 15 21 14.5t43 -10t52.5 -25.5t49 -31.5t32.5 -27.5t3 -13q-11 -13 -20 -47t-14 -77t-6 -89.5t3.5 -85t14.5 -63t28 -23.5q14 1 29 20.5t28.5 50.5t25 68.5t17.5 74.5zM212 71q16 -10 29 3.5t23.5 38t17.5 54t12 51.5q0 17 0.5 47.5t2 67t3.5 75.5t5 73q-28 4 -48.5 -10.5
t-35.5 -41t-24 -61.5t-13 -73t-3.5 -75.5t4.5 -68.5t11 -52.5t16 -27.5zM206 829q9 11 32 22.5t51 21.5t57 16t50 6.5t29.5 -7t-4.5 -24.5q-57 -48 -92.5 -78t-57 -47.5t-33 -26t-20.5 -12.5q-11 -5 -27.5 -9.5t-31 -6.5t-23.5 -1t-6 6z" />
    <glyph glyph-name="agrave" unicode="&#xe0;" horiz-adv-x="595" 
d="M621 280q2 7 7 10.5t9.5 2.5t7.5 -6.5t1 -15.5q-6 -32 -16.5 -71.5t-26.5 -79.5t-40 -77t-57 -64q-27 -22 -59.5 -27.5t-62.5 11.5t-53.5 60.5t-31.5 119.5q-11 -53 -41 -93.5t-77 -49.5q-54 -11 -93 15t-63 73t-33 108t-2 122t30 114.5t62.5 84.5t96 33t129.5 -40l6 34
q3 15 21 14.5t43 -10t52.5 -25.5t49 -31.5t32.5 -27.5t3 -13q-11 -13 -20 -47t-14 -77t-6 -89.5t3.5 -85t14.5 -63t28 -23.5q14 1 29 20.5t28.5 50.5t25 68.5t17.5 74.5zM212 71q16 -10 29 3.5t23.5 38t17.5 54t12 51.5q0 17 0.5 47.5t2 67t3.5 75.5t5 73q-28 4 -48.5 -10.5
t-35.5 -41t-24 -61.5t-13 -73t-3.5 -75.5t4.5 -68.5t11 -52.5t16 -27.5zM464 689q3 -5 -6 -6t-23.5 1t-31 6.5t-27.5 9.5q-9 4 -20.5 12.5t-33 26t-57 47.5t-92.5 78q-13 17 -4.5 24.5t29.5 7t50 -6.5t57 -16t51 -21.5t32 -22.5z" />
    <glyph glyph-name="quotesinglbase" unicode="&#x201a;" horiz-adv-x="227" 
d="M135 11q-3 -8 -12.5 -23t-20.5 -30.5t-21.5 -28t-14.5 -14.5q-23 -9 -45 13q-5 4 2.5 17.5t14 30.5t7 34.5t-17.5 31.5q-11 8 -13 26.5t1 40.5t8.5 44.5t9.5 40.5q7 17 23.5 24.5t37.5 7t43 -6.5t39.5 -16t27 -21.5t6.5 -22.5q-29 -40 -43 -75t-32 -73z" />
    <glyph glyph-name="quotedblbase" unicode="&#x201e;" horiz-adv-x="450" 
d="M135 11q-3 -8 -12.5 -23t-20.5 -30.5t-21.5 -28t-14.5 -14.5q-23 -9 -45 13q-5 4 2.5 17.5t14 30.5t7 34.5t-17.5 31.5q-11 8 -13 26.5t1 40.5t8.5 44.5t9.5 40.5q7 17 23.5 24.5t37.5 7t43 -6.5t39.5 -16t27 -21.5t6.5 -22.5q-29 -40 -43 -75t-32 -73zM338 11
q-3 -8 -12.5 -23t-20.5 -30.5t-21.5 -28t-14.5 -14.5q-23 -9 -45 13q-5 4 2.5 17.5t14 30.5t7 34.5t-17.5 31.5q-11 8 -13 26.5t1 40.5t8.5 44.5t9.5 40.5q7 17 23.5 24.5t37.5 7t43 -6.5t39.5 -16t27 -21.5t6.5 -22.5q-29 -40 -43 -75t-32 -73z" />
    <glyph glyph-name="quotedblright" unicode="&#x201d;" horiz-adv-x="454" 
d="M147 570q-3 -8 -12.5 -23t-20.5 -30.5t-21.5 -28t-14.5 -14.5q-23 -9 -45 13q-5 4 2.5 17.5t14 30.5t7 34.5t-17.5 31.5q-11 8 -13 26.5t1 40.5t8.5 44.5t9.5 40.5q7 17 23.5 24.5t37.5 7t43 -6.5t39.5 -16t27 -21.5t6.5 -22.5q-29 -40 -43 -75t-32 -73zM350 570
q-3 -8 -12.5 -23t-20.5 -30.5t-21.5 -28t-14.5 -14.5q-23 -9 -45 13q-5 4 2.5 17.5t14 30.5t7 34.5t-17.5 31.5q-11 8 -13 26.5t1 40.5t8.5 44.5t9.5 40.5q7 17 23.5 24.5t37.5 7t43 -6.5t39.5 -16t27 -21.5t6.5 -22.5q-29 -40 -43 -75t-32 -73z" />
    <glyph glyph-name="quotedblleft" unicode="&#x201c;" horiz-adv-x="457" 
d="M302 720q3 7 12.5 22.5t20.5 31t21 28t15 14.5q23 9 45 -13q4 -5 -3 -18t-13.5 -30t-7 -35t17.5 -31q11 -8 13 -26.5t-1 -40.5t-8.5 -44.5t-9.5 -40.5q-7 -17 -23.5 -24.5t-37.5 -7t-43 6.5t-39.5 16t-27.5 21.5t-6 22.5q29 40 43 75t32 73zM99 720q3 7 12.5 22.5
t20.5 31t21 28t15 14.5q23 9 45 -13q4 -5 -3 -18t-13.5 -30t-7 -35t17.5 -31q11 -8 13 -26.5t-1 -40.5t-8.5 -44.5t-9.5 -40.5q-7 -17 -23.5 -24.5t-37.5 -7t-43 6.5t-39.5 16t-27.5 21.5t-6 22.5q29 40 43 75t32 73z" />
    <glyph glyph-name="quoteleft" unicode="&#x2018;" horiz-adv-x="259" 
d="M99 720q3 7 12.5 22.5t20.5 31t21 28t15 14.5q23 9 45 -13q4 -5 -3 -18t-13.5 -30t-7 -35t17.5 -31q11 -8 13 -26.5t-1 -40.5t-8.5 -44.5t-9.5 -40.5q-7 -17 -23.5 -24.5t-37.5 -7t-43 6.5t-39.5 16t-27.5 21.5t-6 22.5q29 40 43 75t32 73z" />
    <glyph glyph-name="quoteright" unicode="&#x2019;" horiz-adv-x="250" 
d="M147 570q-3 -8 -12.5 -23t-20.5 -30.5t-21.5 -28t-14.5 -14.5q-23 -9 -45 13q-5 4 2.5 17.5t14 30.5t7 34.5t-17.5 31.5q-11 8 -13 26.5t1 40.5t8.5 44.5t9.5 40.5q7 17 23.5 24.5t37.5 7t43 -6.5t39.5 -16t27 -21.5t6.5 -22.5q-29 -40 -43 -75t-32 -73z" />
    <glyph glyph-name="percent" unicode="%" horiz-adv-x="732" 
d="M118 836q9 4 21 -7t18 -20q26 15 45 5.5t31.5 -34.5t18.5 -62t5.5 -78t-7 -82t-19.5 -73t-32 -52.5t-44 -20.5q-39 0 -66 18.5t-43.5 48.5t-23.5 68.5t-6 78.5t9.5 78t22 67.5t31.5 47.5t39 17zM183 755q-13 -2 -23 -25.5t-16 -57t-7.5 -72t2.5 -71t13.5 -53t26.5 -17.5
q14 2 24 29.5t15.5 66.5t5.5 83t-5 80t-16 56t-28 12q-1 0 1.5 -5t4.5 -10.5t3.5 -10.5t-1.5 -5zM571 414q9 4 21 -7t18 -20q26 15 45 5.5t31.5 -34.5t18.5 -62t5.5 -78t-7 -82t-19.5 -73t-32 -52.5t-44 -20.5q-53 0 -83.5 32t-44 79.5t-11.5 102.5t15.5 102t36 78t50.5 30z
M636 333q-13 -2 -23 -25.5t-16 -57t-7.5 -72t2.5 -71t13.5 -53t26.5 -17.5q14 2 24 29.5t15.5 66.5t5.5 83t-5 80t-16 56t-28 12q-1 0 1.5 -5t4.5 -10.5t3.5 -10.5t-1.5 -5zM413 849q1 6 19 7t44 -2.5t56.5 -9.5t55.5 -13.5t40.5 -16t12.5 -15.5q-39 -97 -81.5 -204
t-85.5 -217t-85 -218.5t-78 -207.5q-3 -7 -22 -9t-45.5 0t-56.5 7t-54.5 12.5t-40 16t-12.5 17.5q17 42 41.5 104t53.5 136.5t60.5 156t63 162.5t61 156.5t53.5 137.5z" />
    <glyph glyph-name="perthousand" unicode="&#x2030;" horiz-adv-x="1037" 
d="M118 836q9 4 21 -7t18 -20q26 15 45 5.5t31.5 -34.5t18.5 -62t5.5 -78t-7 -82t-19.5 -73t-32 -52.5t-44 -20.5q-39 0 -66 18.5t-43.5 48.5t-23.5 68.5t-6 78.5t9.5 78t22 67.5t31.5 47.5t39 17zM183 755q-13 -2 -23 -25.5t-16 -57t-7.5 -72t2.5 -71t13.5 -53t26.5 -17.5
q14 2 24 29.5t15.5 66.5t5.5 83t-5 80t-16 56t-28 12q-1 0 1.5 -5t4.5 -10.5t3.5 -10.5t-1.5 -5zM571 414q9 4 21 -7t18 -20q26 15 45 5.5t31.5 -34.5t18.5 -62t5.5 -78t-7 -82t-19.5 -73t-32 -52.5t-44 -20.5q-53 0 -83.5 32t-44 79.5t-11.5 102.5t15.5 102t36 78t50.5 30z
M636 333q-13 -2 -23 -25.5t-16 -57t-7.5 -72t2.5 -71t13.5 -53t26.5 -17.5q14 2 24 29.5t15.5 66.5t5.5 83t-5 80t-16 56t-28 12q-1 0 1.5 -5t4.5 -10.5t3.5 -10.5t-1.5 -5zM413 849q1 6 19 7t44 -2.5t56.5 -9.5t55.5 -13.5t40.5 -16t12.5 -15.5q-39 -97 -81.5 -204
t-85.5 -217t-85 -218.5t-78 -207.5q-3 -7 -22 -9t-45.5 0t-56.5 7t-54.5 12.5t-40 16t-12.5 17.5q17 42 41.5 104t53.5 136.5t60.5 156t63 162.5t61 156.5t53.5 137.5zM862 414q9 4 21 -7t18 -20q26 15 45 5.5t31.5 -34.5t18.5 -62t5.5 -78t-7 -82t-19.5 -73t-32 -52.5
t-44 -20.5q-39 0 -66 18.5t-43.5 48.5t-23.5 68.5t-6 78.5t9.5 78t22 67.5t31.5 47.5t39 17zM927 333q-13 -2 -23 -25.5t-16 -57t-7.5 -72t2.5 -71t13.5 -53t26.5 -17.5q14 2 24 29.5t15.5 66.5t5.5 83t-5 80t-16 56t-28 12q-1 0 1.5 -5t4.5 -10.5t3.5 -10.5t-1.5 -5z" />
    </font>
</defs>
</svg>
